<?xml version="1.0" standalone="no"?>
<!DOCTYPE svg PUBLIC "-//W3C//DTD SVG 1.1//EN" "http://www.w3.org/Graphics/SVG/1.1/DTD/svg11.dtd" >
<svg xmlns="http://www.w3.org/2000/svg" xmlns:xlink="http://www.w3.org/1999/xlink" version="1.1">
<metadata>
Created by FontForge 20170731 at Tue Jun 13 11:42:19 2023
 By Aleksey,,,
</metadata>
<defs>
<font id="MinionPro-Regular" horiz-adv-x="400" >
  <font-face 
    font-family="Minion Pro"
    font-weight="400"
    font-stretch="normal"
    units-per-em="1000"
    panose-1="2 4 5 3 5 3 6 2 2 3"
    ascent="727"
    descent="-273"
    x-height="437"
    cap-height="650"
    bbox="-290 -360 1684 989"
    underline-thickness="50"
    underline-position="-100"
    unicode-range="U+000D-FB06"
  />
<missing-glyph horiz-adv-x="500" 
d="M500 0h-500v700h500v-700zM420 650h-340l170 -255zM450 95v510l-170 -255zM80 50h340l-170 255zM50 605v-510l170 255z" />
    <glyph glyph-name="T_h" unicode="Th" horiz-adv-x="1071" 
d="M1052 0h-212v26q45 5 55.5 17.5t10.5 61.5v164q0 62 -24.5 93t-74.5 30q-62 0 -103 -52v-235q0 -49 10 -62t55 -17v-26h-214v26q47 5 58.5 17.5t11.5 61.5v503q-66 6 -196 6h-70v-488q0 -64 15.5 -79t83.5 -20v-27h-281v27q66 5 81.5 20.5t15.5 78.5v488h-63
q-64 0 -87 -7t-35 -25q-18 -28 -32 -87h-29q12 167 12 180h19q10 -16 21 -20.5t33 -4.5h416q60 0 78 5t18 21v14q26 4 79 23v-336q67 71 139 72q66 2 104 -40.5t38 -129.5v-174q0 -50 10.5 -62t56.5 -17v-26z" />
    <glyph glyph-name="Tcaron_h" unicode="&#x164;h" horiz-adv-x="1071" 
d="M1052 0h-212v26q45 5 55.5 17.5t10.5 61.5v164q0 62 -24.5 93t-74.5 30q-62 0 -103 -52v-235q0 -49 10 -62t55 -17v-26h-214v26q47 5 58.5 17.5t11.5 61.5v503q-66 6 -196 6h-70v-488q0 -64 15.5 -79t83.5 -20v-27h-281v27q66 5 81.5 20.5t15.5 78.5v488h-63
q-64 0 -87 -7t-35 -25q-18 -28 -32 -87h-29q12 167 12 180h19q10 -16 21 -20.5t33 -4.5h416q60 0 78 5t18 21v14q26 4 79 23v-336q67 71 139 72q66 2 104 -40.5t38 -129.5v-174q0 -50 10.5 -62t56.5 -17v-26zM442 821l16 -26q-79 -57 -126 -107h-22q-36 38 -126 107l16 26
q75 -34 121 -62q60 35 121 62z" />
    <glyph glyph-name="uni021A_h" unicode="&#x21a;h" horiz-adv-x="1071" 
d="M1052 0h-212v26q45 5 55.5 17.5t10.5 61.5v164q0 62 -24.5 93t-74.5 30q-62 0 -103 -52v-235q0 -49 10 -62t55 -17v-26h-214v26q47 5 58.5 17.5t11.5 61.5v503q-66 6 -196 6h-70v-488q0 -64 15.5 -79t83.5 -20v-27h-281v27q66 5 81.5 20.5t15.5 78.5v488h-63
q-64 0 -87 -7t-35 -25q-18 -28 -32 -87h-29q12 167 12 180h19q10 -16 21 -20.5t33 -4.5h416q60 0 78 5t18 21v14q26 4 79 23v-336q67 71 139 72q66 2 104 -40.5t38 -129.5v-174q0 -50 10.5 -62t56.5 -17v-26zM311 -28q30 0 52 -22t22 -56q0 -80 -106 -106l-9 27q60 26 60 56
t-45 41q-15 4 -15 24q0 17 12.5 26.5t28.5 9.5z" />
    <glyph glyph-name="f_b" unicode="fb" horiz-adv-x="803" 
d="M447 405l82 34q23 10 42 10q80 0 138.5 -60.5t58.5 -148.5q0 -108 -74.5 -180t-177.5 -72q-72 0 -147 36v599q-40 42 -94 42q-41 0 -68 -36q-28 -42 -27 -151v-41h117q5 -7 1.5 -21t-12.5 -19h-106v-283q0 -54 14 -68t73 -20v-26h-234v26q45 5 56.5 18t11.5 61v292h-70
l-5 12l28 28h47v22q0 49 11 82q19 69 77 118q56 46 117 53q43 -2 74 -22q31 8 62 22l5 -6v-301zM447 376v-260q0 -20 6 -35q7 -20 30 -38t58 -18q63 -1 100.5 51t37.5 138q0 83 -43.5 132t-109.5 49q-46 0 -79 -19z" />
    <glyph glyph-name="f_f_b" unicode="ffb" horiz-adv-x="1071" 
d="M715 707v-302l81 34q23 10 42 10q80 0 138.5 -60.5t58.5 -148.5q0 -108 -75 -180t-178 -72q-71 0 -146 36v598q-38 47 -91 47q-42 0 -68 -36q-29 -39 -30 -157v-39h117q5 -7 1.5 -21t-11.5 -19h-107v-293q0 -49 13 -61.5t66 -17.5v-25h-220v25q41 5 51.5 18t10.5 62v292
h-188v-293q0 -49 11 -61t57 -18v-25h-215v26q45 5 56.5 17.5t11.5 60.5v293h-70l-4 11l27 29h47v10q0 32 12 73q21 64 83 114q58 46 126 53q74 -2 113 -48q63 66 139 73q48 -2 75 -23q30 7 61 23zM368 437v17q0 72 31 133q-16 23 -44.5 40.5t-63.5 17.5q-52 0 -80 -46
q-31 -46 -31 -140v-22h188zM715 376v-259q0 -20 6 -35q7 -20 30.5 -38t58.5 -18q60 -1 98.5 50t38.5 138q0 83 -44 131.5t-109 48.5q-47 0 -79 -18z" />
    <glyph glyph-name="f_f_h" unicode="ffh" horiz-adv-x="1081" 
d="M1063 0h-212v26q44 5 55 17.5t11 60.5v165q0 62 -24.5 93.5t-75.5 30.5q-62 0 -103 -52v-237q0 -47 11.5 -60t54.5 -18v-26h-208v26q42 5 53 17.5t11 60.5v518q-42 46 -92 46q-44 0 -69 -37q-28 -39 -28 -155v-39h117q5 -7 2 -21t-12 -19h-107v-293q0 -47 12 -60t59 -18
v-26h-212v26q41 5 51.5 18t10.5 61v292h-188v-292q0 -48 11 -61t56 -18v-26h-212v26q44 5 55 18.5t11 60.5v292h-70l-3 11l27 29h46v10q0 30 13 73q20 65 82 114q60 48 128 53q71 -2 112 -48q61 64 135 73q45 0 75 -23q34 8 64 23l4 -4v-330q68 70 141 71q65 2 103 -40.5
t38 -129.5v-176q0 -48 11 -60t56 -17v-26zM368 437v17q0 74 31 133q-39 58 -107 58q-54 0 -81 -47q-31 -47 -31 -139v-22h188z" />
    <glyph glyph-name="f_f_j" unicode="ffj" horiz-adv-x="787" 
d="M447 437h81q117 0 186 13l1 -339q0 -97 -23 -161q-22 -66 -58 -120.5t-59 -75.5q-12 -11 -26 -11q-11 0 -23.5 12.5t-12.5 29.5t21 24q53 17 68 37q17 21 25 72q9 69 9 193l-1 234q0 35 -7.5 44t-42.5 9h-138v-298q0 -47 11 -58.5t60 -15.5v-26h-215v26q45 4 55 15.5
t10 58.5v298h-188v-294q0 -50 10.5 -62t56.5 -17v-25h-212v26q44 5 55.5 17t11.5 61v294h-71l-3 10l26 29h48v20q0 30 10 70q24 68 84 114t126 51q82 -3 116 -53q71 69 147 73q71 -1 108 -47q13 -19 6 -36q-10 -17 -23 -25q-18 -13 -32 2q-17 19 -25.5 27t-31 20t-45.5 12
q-38 0 -64 -36q-31 -40 -31 -152v-40zM368 437v27q0 43 10 72q9 31 20 49q-16 26 -45.5 45t-65.5 19q-51 0 -77 -42q-30 -50 -30 -142v-28h188z" />
    <glyph glyph-name="f_f_k" unicode="ffk" horiz-adv-x="1045" 
d="M1061 0l-132 -2q-23 24 -51 56l-64 78l-52 64q-17 22 -30 22q-9 0 -18 -3v-110q0 -49 12 -61.5t61 -17.5v-26h-219v26q45 5 56.5 17.5t11.5 61.5v517q-42 46 -92 46q-44 0 -68 -35q-29 -40 -29 -157v-39h117q5 -7 2 -21.5t-12 -18.5h-107v-294q0 -47 12 -59.5t60 -17.5
v-26h-213v26q41 5 51.5 17.5t10.5 59.5v294h-188v-293q0 -48 11 -60t57 -18v-26h-215v27q45 5 56.5 17t11.5 60v293h-70l-4 9l27 31h47v10q0 33 13 74q23 67 81 113q62 48 130 53q72 -2 111 -48q59 64 136 73q46 -2 74 -22q23 4 64 22l4 -5v-466q37 8 64 35q38 38 70 87
q15 23 9.5 32t-38.5 12v27l205 9v-26q-48 -7 -73 -19t-54 -39q-25 -25 -86 -97q17 -25 73 -90t83 -92q29 -28 48 -40t46 -14v-26zM368 437v17q0 74 31 133q-39 58 -109 58q-50 0 -80 -47q-30 -42 -30 -139v-22h188z" />
    <glyph glyph-name="f_f_t" unicode="fft" horiz-adv-x="852" 
d="M844 34l-70 -35q-25 -11 -40 -11q-98 0 -98 119v291h-189v-295q0 -49 12.5 -61t64.5 -17v-25h-218v25q41 5 51.5 17.5t10.5 60.5v295h-188v-295q0 -48 11 -60t57 -18v-25h-215v26q45 5 56.5 17t11.5 60v295h-70l-4 10l27 29h47v11q0 34 12 70q22 67 82 116q62 48 129 53
q73 -3 112 -48q62 65 132 73q48 -1 75 -30q14 -17 7 -35q-13 -20 -25 -27q-10 -6 -22 4q-39 37 -78 37q-32 0 -54 -33q-24 -36 -24 -159v-32h189v67l65 68l13 -2v-133h114q7 -7 5 -20t-12 -19h-107v-257q0 -96 59 -96q30 0 62 16zM368 437v19q0 73 30 130q-40 58 -107 58
q-49 0 -81 -44q-30 -42 -30 -141v-22h188z" />
    <glyph glyph-name="f_h" unicode="fh" horiz-adv-x="814" 
d="M796 0h-212v26q44 5 55 18t11 61v164q0 123 -99 123q-63 -2 -104 -52v-235q0 -48 11.5 -61t54.5 -18v-26h-209v26q42 5 53 18t11 61v517q-38 45 -93 45q-43 0 -68 -37q-27 -36 -27 -154v-39h116q5 -7 1.5 -21t-11.5 -19h-106v-284q0 -54 10.5 -67.5t55.5 -19.5v-26h-212
v26q45 6 56 18.5t11 59.5v293h-70l-3 9l27 31h46v18q0 50 11 86q20 67 77 116q55 48 115 55q50 -2 75 -23q32 8 63 23l5 -4v-330q70 70 140 71q66 2 104 -41t38 -130v-174q0 -48 11 -60.5t56 -17.5v-26z" />
    <glyph glyph-name="f_j" unicode="fj" horiz-adv-x="520" 
d="M181 437h79q119 0 187 13v-339q0 -97 -22 -162q-41 -117 -117 -193q-13 -13 -27 -13q-12 0 -24.5 12t-12.5 29q0 15 21 23q55 18 69 37q19 24 27 75q8 61 8 196v230q0 35 -8 44t-44 9h-136v-298q0 -47 11 -58t59 -16v-26h-220v26q49 5 60 16.5t11 57.5v298h-71l-5 11
l28 28h48v24q0 39 11 77q23 72 82 120q61 47 123 54q40 -1 68 -16t40 -32q13 -21 5 -36q-9 -16 -23 -24q-18 -11 -29 1q-49 58 -104 58q-39 0 -63 -35q-31 -46 -31 -157v-34z" />
    <glyph glyph-name="f_k" unicode="fk" horiz-adv-x="778" 
d="M794 0l-132 -2l-50 56l-64 78l-53 64q-17 22 -30 22q-9 0 -18 -3v-110q0 -49 12 -61.5t61 -16.5v-27h-221v27q47 4 58.5 16.5t11.5 61.5v519q-40 42 -93 42q-45 0 -68 -37q-31 -45 -28 -153v-39h116q5 -7 2 -21t-11 -19h-107v-283q0 -55 11 -68.5t56 -18.5v-27h-214v27
q45 5 56.5 18t11.5 60v292h-71l-2 10l26 30h47v18q0 50 11 86q21 68 77 116q58 48 114 55q51 -2 75 -22q26 4 64 22l5 -5v-466q37 8 64 35q30 28 71 88q17 23 12 32t-40 12v26l203 9v-25q-49 -8 -72.5 -19.5t-53.5 -38.5q-13 -12 -88 -97q18 -26 74.5 -91.5t82.5 -91.5
q28 -28 47.5 -40t46.5 -14v-26z" />
    <glyph glyph-name="f_t" unicode="ft" horiz-adv-x="582" 
d="M577 34l-69 -34q-23 -12 -41 -12q-98 0 -98 119v290h-189v-292q0 -49 12 -62t62 -17v-26h-223v26q47 5 58.5 18t11.5 60v293h-70l-5 11l26 29h49v25q0 42 10 77q22 74 80 120q56 46 110 53q48 -1 75 -30q15 -17 7 -36q-9 -17 -24 -26q-12 -8 -24 4q-35 35 -77 35
q-34 0 -54 -30q-25 -38 -24 -166v-26h189v68l64 67l14 -2v-133h114q6 -7 4 -20.5t-11 -19.5h-107v-256q0 -97 59 -97q28 0 62 17z" />
    <glyph glyph-name="longs_b" unicode="&#x17f;b" horiz-adv-x="804" 
d="M447 404l79 35q23 10 43 10q81 0 140 -60.5t59 -148.5q0 -108 -75.5 -180t-177.5 -72q-72 0 -147 36v601q-40 44 -91 44q-43 0 -70 -41t-27 -175v-340q0 -56 11 -69t62 -18v-26h-218v26q45 5 55.5 16.5t10.5 61.5v294h-70l-4 10l27 29h47v21q0 45 10 82q23 72 77 118
q53 46 117 54q46 -1 75 -24q27 7 61 24l6 -5v-303zM447 376v-260q0 -22 5 -35q7 -19 31 -37t60 -19q62 0 99 50.5t37 138.5q0 82 -45 131t-110 49q-45 0 -77 -18z" />
    <glyph glyph-name="longs_h" unicode="&#x17f;h" horiz-adv-x="814" 
d="M793 0h-208v26q43 5 53.5 17t10.5 61v165q0 63 -24.5 93.5t-75.5 29.5q-63 0 -102 -51v-238q0 -48 10 -60t54 -17v-26h-208v26q44 5 54.5 16.5t10.5 60.5v521q-41 46 -93 46q-41 0 -68 -41t-27 -190v-328q0 -54 10.5 -67t56.5 -18v-26h-212v26q45 5 55.5 17.5t10.5 59.5
v295h-70l-4 10l27 29h47v22q0 48 11 81q19 69 76 118q56 47 115 54q50 -2 76 -24q28 7 63 24l5 -5v-331q68 72 139 73q66 2 104 -40.5t38 -130.5v-175q0 -49 10.5 -60.5t54.5 -16.5v-26z" />
    <glyph glyph-name="longs_i" unicode="&#x17f;i" horiz-adv-x="533" 
d="M54 437h47v23q0 41 12 75q19 71 83 123q60 48 124 54q71 -2 107 -50q12 -18 5 -33q-6 -13 -22 -25q-19 -14 -30 0q-48 60 -104 60q-38 0 -64 -38q-32 -47 -32 -188v-328q0 -53 10.5 -66t56.5 -18v-26h-211v26q44 5 54.5 17t10.5 60v295h-71l-2 10zM514 0h-213v26
q46 5 56.5 17t10.5 64v201q0 51 -9.5 62.5t-53.5 19.5v22q78 13 142 39v-344q0 -52 10.5 -64t56.5 -17v-26z" />
    <glyph glyph-name="longs_k" unicode="&#x17f;k" horiz-adv-x="777" 
d="M792 0l-131 -2q-22 22 -49 54l-65 79l-53 65q-16 21 -30 21q-8 0 -18 -3v-110q0 -49 11.5 -61t60.5 -17v-26h-217v26q46 5 56.5 16.5t10.5 60.5v521q-43 46 -93 46q-43 0 -68 -41q-27 -43 -27 -186v-335q0 -52 10.5 -64.5t55.5 -17.5v-26h-212v26q45 5 56 17t11 57v298
h-71l-3 10l27 29h47v22q0 48 11 81q20 71 76 117q55 47 115 55q54 -2 76 -24q33 9 62 24l5 -5v-465q40 9 64 33q39 39 75 94q14 18 7.5 27t-40.5 12v26l203 9v-25q-48 -8 -74 -20t-54 -39q-31 -31 -86 -95q17 -25 72 -90t84 -94q28 -28 48 -40t47 -14v-26z" />
    <glyph glyph-name="longs_l" unicode="&#x17f;l" horiz-adv-x="533" 
d="M517 -1h-216v26q46 5 56.5 16.5t10.5 62.5v521q-40 44 -92 44q-41 0 -66 -37q-30 -39 -30 -199v-320q0 -56 10 -69t54 -18v-26h-209v26q45 5 55.5 17t10.5 61v294h-70l-3 10l26 29h47v22q0 46 11 82q20 69 75 116q54 47 116 55q50 -1 77 -23q30 7 61 23l6 -6v-602
q0 -51 11 -62.5t59 -16.5v-26z" />
    <glyph glyph-name="longs_longs" unicode="&#x17f;&#x17f;" horiz-adv-x="533" 
d="M101 437v10q0 37 12 71q25 68 78 114q59 49 126 55q75 -2 115 -51q59 66 132 76q56 -1 83 -34q15 -18 8 -33q-5 -10 -22 -25q-12 -9 -23 2q-40 42 -83 42q-38 0 -58 -38q-22 -41 -22 -196v-321q0 -52 11 -65t58 -18v-26h-214v26q44 5 55 17t11 61v293h-72l-3 11l27 29h48
v18q0 74 30 130q-51 62 -114 62q-48 0 -78 -52q-26 -44 -26 -183v-305q0 -52 9.5 -64t54.5 -17v-26h-211v26q46 5 57 16.5t11 56.5v298h-70l-3 11l26 29h47z" />
    <glyph glyph-name="longs_longs_i" unicode="&#x17f;&#x17f;i" horiz-adv-x="800" 
d="M101 437v10q0 40 11 72q31 74 79 115q58 47 125 53q77 -2 121 -53q27 31 67 52.5t80 25.5q75 -2 110 -51q12 -16 5 -33q-7 -15 -23 -24q-17 -12 -28 1q-48 59 -103 59q-42 0 -66 -38q-32 -47 -32 -181v-336q0 -52 11 -65t58 -18v-26h-214v26q44 5 55 17.5t11 60.5v293
h-71l-4 10l27 30h48v21q0 70 32 125q-47 61 -118 61q-45 0 -75 -46q-27 -44 -27 -189v-301q0 -51 10.5 -64t53.5 -18v-26h-211v26q46 5 57 17.5t11 59.5v294h-72l-3 10l27 30h48zM785 0h-218v26q46 5 57 18t11 62v202q0 51 -9.5 62t-53.5 19v23q78 13 142 39v-344
q0 -50 11.5 -63t59.5 -18v-26z" />
    <glyph glyph-name="longs_longs_l" unicode="&#x17f;&#x17f;l" horiz-adv-x="800" 
d="M787 -1h-218v27q44 5 55.5 17.5t11.5 61.5v521q-36 41 -89 41q-46 0 -71 -39q-28 -43 -28 -193v-323q0 -54 11 -67.5t56 -18.5v-26h-213v26q44 5 55.5 18t11.5 61v292h-71l-4 10l27 30h47v18q0 74 31 131q-40 59 -113 59q-44 0 -74 -43q-31 -43 -31 -186v-304
q0 -54 10.5 -67.5t53.5 -18.5v-26h-211v26q45 5 56 17.5t11 60.5v293h-71l-3 10l27 30h47v10q0 38 11 71q27 72 80 116q58 48 125 54q73 0 117 -52q65 67 137 76q48 0 77 -24q28 7 62 24l5 -5v-602q0 -49 12 -61.5t60 -17.5v-27z" />
    <glyph glyph-name="f_f" unicode="ff" horiz-adv-x="561" 
d="M99 437v13q0 40 12 76q25 68 79 110q61 48 127 54q73 -3 116 -48q60 60 131 70q53 -2 81 -35q13 -16 5 -33q-5 -13 -21 -24q-15 -14 -29 0q-41 41 -82 41q-32 0 -52 -32q-23 -39 -22 -158l1 -34h119q4 -6 1.5 -20t-10.5 -19h-111v-294q0 -50 12.5 -62t69.5 -17v-25h-223
v25q42 5 52.5 17.5t10.5 61.5v294h-188v-294q0 -49 11 -61.5t57 -17.5v-25h-215v26q46 5 57 17t11 61v294h-71l-3 11l26 28h48zM366 437v19q0 50 8 77q5 19 20 52q-42 63 -111 63q-47 0 -74 -43q-31 -46 -31 -144v-24h188z" />
    <glyph glyph-name="f_f_i" unicode="ffi" horiz-adv-x="798" 
d="M781 0h-211v26q42 5 52.5 16.5t10.5 57.5v245q0 35 -7.5 44t-43.5 9h-137v-298q0 -46 10.5 -57.5t55.5 -16.5v-26h-209v26q44 5 54 16t10 58v298h-188v-294q0 -49 10.5 -61.5t56.5 -17.5v-25h-212v26q45 5 55.5 16.5t10.5 61.5v294h-70l-4 10l27 29h47v20q0 34 11 72
q21 64 84 113q58 44 125 51q82 -3 117 -52q70 67 147 72q71 -2 108 -48q14 -18 6 -36q-10 -17 -23 -25q-19 -12 -32 3q-1 1 -7 8t-8 9l-9 8l-10 10l-10 7l-12 7l-12 5l-16 4l-15 1q-42 0 -67 -37q-31 -40 -31 -152v-40h80q118 0 187 13v-350q0 -47 10.5 -58.5t58.5 -15.5
v-26zM366 437v27q0 35 9 71q10 34 20 51q-39 64 -110 64q-51 0 -77 -43q-30 -47 -30 -142v-28h188z" />
    <glyph glyph-name="f_f_l" unicode="ffl" horiz-adv-x="801" 
d="M785 0h-213v26q43 4 53.5 15.5t10.5 57.5v523q-12 20 -36 33t-52 13q-43 0 -70 -34q-31 -39 -31 -151v-46h118q4 -6 1 -20.5t-11 -18.5h-107l-1 -298q0 -47 10.5 -58t56.5 -16v-26h-211v26q45 5 55.5 16.5t10.5 57.5v298h-189v-294q0 -49 11 -61t56 -17v-26h-212v26
q45 5 56 17t11 61v294h-71l-3 11l27 28h47v18q0 38 11 71q24 65 81 111q60 47 129 54q74 -2 116 -49q64 64 137 70q52 0 88 -25q4 2 41 23l9 -5v-606q0 -46 11 -57t60 -16v-26zM369 437v20q0 52 10 84q6 21 20 48q-37 58 -110 58q-53 0 -80 -44q-29 -44 -29 -141v-25h189z
" />
    <glyph glyph-name="longs_t" unicode="&#x17f;t" horiz-adv-x="578" 
d="M54 437h47v22q0 43 11 78q17 70 82 123q53 44 108 52q47 -1 76 -30q15 -18 7 -36q-8 -14 -25 -26q-11 -7 -21 3q-40 40 -80 40q-30 0 -53 -34q-26 -42 -26 -191v-326q0 -53 12 -67t61 -19v-26h-219v26q45 5 56 18t11 59v295h-70l-5 10zM572 33l-69 -34q-25 -11 -41 -11
q-98 0 -98 119v291h-68l-5 10l28 29h45v68l65 67l14 -2v-133h113q6 -7 4 -20t-11 -19h-106v-257q0 -98 58 -98q29 0 61 16z" />
    <glyph glyph-name="f_i" unicode="fi" horiz-adv-x="535" 
d="M517 0h-212v26q42 4 52.5 15.5t10.5 58.5v245q0 35 -8 44t-43 9h-137v-298q0 -46 11 -57.5t59 -16.5v-26h-219v26q48 5 59.5 16.5t11.5 57.5v298h-72l-5 11l28 28h49v24q0 44 11 77q19 69 82 119q60 48 124 55q40 -1 67.5 -16.5t38.5 -31.5q12 -17 5 -36q-9 -16 -22 -25
q-18 -10 -29 2q-49 58 -104 58q-38 0 -62 -35q-33 -45 -33 -157v-34h79q120 0 188 13v-350q0 -47 11 -58t59 -16v-26z" />
    <glyph glyph-name="f_l" unicode="fl" horiz-adv-x="533" 
d="M519 0h-216v26q44 4 54.5 16t10.5 58v522q-13 20 -37.5 32.5t-51.5 12.5q-42 0 -68 -36q-31 -40 -31 -141v-53h117q4 -7 1 -21t-11 -18h-107v-298q0 -46 10.5 -57.5t56.5 -16.5v-26h-216v26q48 5 59 16.5t11 57.5v298h-70l-4 11l27 28h47v18q0 53 13 89q20 66 81 116
q54 44 117 52q47 0 82 -23q11 3 45 21l8 -5v-605q0 -46 11.5 -57.5t60.5 -16.5v-26z" />
    <glyph glyph-name=".notdef" horiz-adv-x="500" 
d="M500 0h-500v700h500v-700zM420 650h-340l170 -255zM450 95v510l-170 -255zM80 50h340l-170 255zM50 605v-510l170 255z" />
    <glyph glyph-name=".null" horiz-adv-x="0" 
 />
    <glyph glyph-name=".null" horiz-adv-x="0" 
 />
    <glyph glyph-name="nonmarkingreturn" unicode="&#xd;" horiz-adv-x="333" 
 />
    <glyph glyph-name="glyph30" horiz-adv-x="500" 
d="M500 0h-500v700h500v-700zM420 650h-340l170 -255zM450 95v510l-170 -255zM80 50h340l-170 255zM50 605v-510l170 255z" />
    <glyph glyph-name="space" unicode=" " horiz-adv-x="227" 
 />
    <glyph glyph-name="exclam" unicode="!" horiz-adv-x="276" 
d="M136 665q54 0 54 -30q0 -23 -7 -80q-10 -88 -29 -358q-4 -5 -17.5 -5t-17.5 5q-20 285 -29 358q-7 72 -7 80q0 30 53 30zM137 -12q-24 0 -40 16t-16 43q0 25 16 41.5t40 16.5q25 0 41 -16.5t16 -41.5q0 -27 -16 -43t-41 -16z" />
    <glyph glyph-name="quotedbl" unicode="&#x22;" horiz-adv-x="318" 
d="M119 710l6 -5q-5 -62 -26 -219l-28 -12q-19 172 -29 209zM268 710l6 -5q-9 -103 -26 -219l-28 -12q-22 189 -28 209z" />
    <glyph glyph-name="numbersign" unicode="#" horiz-adv-x="480" 
d="M448 454l-9 -58h-91l-30 -137h86l-10 -58h-89l-38 -174h-38l37 174h-108l-38 -174h-39l39 174h-96l10 58h100l29 137h-93l8 58h98l33 154h39l-34 -154h108l33 154h38l-32 -154h87zM309 396h-108l-28 -137h107z" />
    <glyph glyph-name="dollar" unicode="$" horiz-adv-x="480" 
d="M264 363l29 -11q141 -51 141 -167q0 -71 -45.5 -117.5t-124.5 -56.5v-87h-35v85q-91 0 -156 41q-13 45 -28 131l30 9q41 -135 154 -148v242l-36 16q-126 52 -126 153q0 62 42.5 107t119.5 54v79h35v-76q44 0 89 -13q18 -5 34 -8l21 -125l-28 -7q-16 53 -39 82.5t-77 37.5
v-221zM229 376v208q-45 -4 -69 -33t-24 -67q0 -72 93 -108zM264 272v-229q45 6 70 35.5t25 71.5q0 39 -17.5 67t-65.5 50z" />
    <glyph glyph-name="percent" unicode="%" horiz-adv-x="756" 
d="M594 629l-404 -661l-30 23l401 661zM194 635q70 0 107 -56t37 -125t-37 -125.5t-107 -56.5t-107.5 56t-37.5 125q0 70 37.5 126t107.5 56zM195 605q-22 0 -37.5 -16t-22.5 -41t-10 -48t-3 -46t3 -46t10 -48.5t22.5 -41.5t37.5 -16t37 16t22 42t9.5 48.5t2.5 44.5
q0 23 -2.5 46t-9.5 48.5t-22 41.5t-37 16zM566 352q70 0 107 -56.5t37 -125.5t-37 -125.5t-107 -56.5t-107.5 56t-37.5 125q0 70 37.5 126.5t107.5 56.5zM566 322q-28 0 -45.5 -28.5t-22 -59.5t-4.5 -64q0 -23 3 -45.5t10 -48.5t22.5 -42t37.5 -16q21 0 36 16t22 42
t9.5 48.5t2.5 45.5t-2.5 46t-9.5 48.5t-22 41.5t-37 16z" />
    <glyph glyph-name="ampersand" unicode="&#x26;" horiz-adv-x="711" 
d="M717 427v-28q-49 -6 -68.5 -20t-47.5 -54l-47 -70l-40 -63q41 -41 92 -101.5t71 -99.5l-7 -10q-38 3 -75 16.5t-47 24.5q-25 31 -87 97q-99 -133 -209 -133q-90 0 -144 55.5t-54 126.5q0 14 2 26l5 23l10 22l11 19l16 18l16 16l22 18l20 16l24 18l24 17q-72 69 -72 139
q0 66 48.5 112t115.5 46q62 0 105 -39.5t43 -98.5q0 -52 -42 -88q-36 -30 -81 -60q93 -79 168 -155q33 51 60 115q15 34 3.5 47t-64.5 20v28h229zM286 624q-36 0 -59 -27.5t-23 -72.5q0 -37 21.5 -66.5t69.5 -66.5q74 54 74 128q0 44 -23.5 74.5t-59.5 30.5zM277 55
q48 0 91 26.5t70 64.5q-85 93 -208 193q-91 -63 -91 -143q0 -67 42 -104t96 -37z" />
    <glyph glyph-name="quotesingle" unicode="'" horiz-adv-x="169" 
d="M119 710l6 -5q-5 -54 -26 -219l-28 -12q-18 171 -29 209z" />
    <glyph glyph-name="parenleft" unicode="(" horiz-adv-x="346" 
d="M300 -147l-18 -22q-106 71 -159 185.5t-53 254.5q0 139 53 252.5t159 185.5l18 -23q-74 -61 -115.5 -173t-41.5 -243q0 -130 41.5 -242.5t115.5 -174.5z" />
    <glyph glyph-name="parenright" unicode=")" horiz-adv-x="346" 
d="M45 686l19 23q211 -142 211 -439q0 -296 -211 -439l-19 22q75 63 116.5 174.5t41.5 242.5t-42 243t-116 173z" />
    <glyph glyph-name="asterisk" unicode="*" horiz-adv-x="404" 
d="M364 492l-132 -24l39 -137l-23 -10l-70 130l-122 -76l-15 22l103 93l-104 102l15 21l120 -80l58 132l25 -6l-28 -139l134 -2v-26z" />
    <glyph glyph-name="plus" unicode="+" horiz-adv-x="580" 
d="M529 230h-209v-230h-58v230h-210v49h210v208h58v-208h209v-49z" />
    <glyph glyph-name="comma" unicode="," horiz-adv-x="228" 
d="M94 129q31 0 61.5 -30t30.5 -78q0 -53 -38.5 -87.5t-92.5 -50.5l-11 29q77 32 77 84q0 26 -17.5 43.5t-45.5 23.5q-12 2 -12 25q0 18 14.5 29.5t33.5 11.5z" />
    <glyph glyph-name="hyphen" unicode="-" horiz-adv-x="356" 
d="M300 253l-15 -55h-228l14 55h229z" />
    <glyph glyph-name="period" unicode="." horiz-adv-x="228" 
d="M114 -12q-24 0 -40 16t-16 42q0 24 16 40.5t40 16.5t40 -16.5t16 -40.5q0 -26 -16 -42t-40 -16z" />
    <glyph glyph-name="slash" unicode="/" horiz-adv-x="331" 
d="M298 665l-217 -709h-56l217 709h56z" />
    <glyph glyph-name="zero" unicode="0" horiz-adv-x="480" 
d="M240 635q71 0 118.5 -50t66 -120t18.5 -153q0 -58 -11 -112.5t-34 -103.5t-63.5 -78.5t-94.5 -29.5t-95 27.5t-64.5 75t-34.5 103t-11 117.5q0 79 19 149.5t67 122.5t119 52zM239 602q-33 0 -56.5 -25t-35.5 -68t-17.5 -91.5t-5.5 -104.5t6 -105t19 -92t36.5 -68.5
t54.5 -25.5q32 0 55.5 25t35.5 68.5t17.5 91.5t5.5 105t-5.5 106t-18 92t-36 67.5t-55.5 24.5z" />
    <glyph glyph-name="one" unicode="1" horiz-adv-x="480" 
d="M384 0h-275v27q67 5 81.5 18.5t14.5 68.5v385q0 39 -7.5 48.5t-40.5 10.5l-48 2v23q84 14 178 52v-521q0 -55 14.5 -68.5t82.5 -18.5v-27z" />
    <glyph glyph-name="two" unicode="2" horiz-adv-x="480" 
d="M412 140l28 -9q0 -2 -35 -131h-374v23q101 99 162 170q59 70 92 127t33 115q0 63 -31 98t-87 35q-74 0 -136 -93l-22 20l57 81q54 59 135 59q69 0 118.5 -46.5t49.5 -122.5q0 -62 -29.5 -114t-102.5 -130l-142 -149h187q42 0 58.5 10.5t38.5 56.5z" />
    <glyph glyph-name="three" unicode="3" horiz-adv-x="480" 
d="M85 496l-21 20l44 63q51 56 127 56q67 0 108 -37t41 -95q0 -40 -31 -71q-19 -20 -68 -54v-2q65 -13 102 -54.5t37 -97.5q0 -57 -30.5 -104.5t-74 -75t-85.5 -42t-72 -14.5q-31 0 -59.5 11t-40.5 23q-19 18 -16 36q1 16 23 33q13 10 24 0q58 -51 124 -51q55 0 88 39.5
t33 112.5q0 64 -39 96.5t-88 32.5q-29 0 -64 -11l-7 29q77 24 118.5 57t41.5 85q0 45 -26.5 69.5t-68.5 24.5q-67 0 -120 -79z" />
    <glyph glyph-name="four" unicode="4" horiz-adv-x="480" 
d="M456 178h-96v-72q0 -51 12.5 -62.5t72.5 -16.5v-27h-256v27q65 5 78 17t13 62v72h-260v28q171 256 300 426h40v-407h96v-47zM280 225v295h-2q-113 -157 -195 -295h197z" />
    <glyph glyph-name="five" unicode="5" horiz-adv-x="480" 
d="M152 550l-26 -185q81 30 112 30q90 0 141.5 -51t51.5 -118q0 -94 -89 -167q-85 -69 -174 -71q-31 0 -60.5 11t-42.5 24q-18 20 -16 34q2 15 21 33q14 11 27 0q56 -51 123 -51q60 0 93.5 43.5t33.5 104.5q0 68 -42 109.5t-121 41.5q-52 0 -103 -20l39 305h285l6 -8
l-26 -65h-233z" />
    <glyph glyph-name="six" unicode="6" horiz-adv-x="480" 
d="M137 343l67 33q37 17 63 17q79 0 129.5 -53.5t50.5 -131.5q0 -91 -58.5 -155.5t-146.5 -64.5q-89 0 -147 68t-58 182q0 78 24.5 144t65.5 110t82.5 72.5t85.5 44.5q55 19 128 32l7 -32q-54 -10 -109 -35q-149 -71 -184 -231zM228 337q-44 0 -96 -28q-6 -23 -6 -69
q0 -93 36.5 -155.5t96.5 -62.5q53 0 77.5 45.5t24.5 104.5q0 68 -34.5 116.5t-98.5 48.5z" />
    <glyph glyph-name="seven" unicode="7" horiz-adv-x="480" 
d="M447 623l8 -12l-283 -613l-74 -10l-7 11q177 286 297 551h-216q-48 0 -62.5 -12t-33.5 -63h-29q10 60 18 148h382z" />
    <glyph glyph-name="eight" unicode="8" horiz-adv-x="480" 
d="M248 635q70 0 116.5 -43t46.5 -105q0 -46 -29 -80q-16 -21 -79 -64q62 -35 97 -75t35 -99q0 -81 -63 -131t-135 -50q-83 0 -137.5 45.5t-54.5 123.5q0 52 45 95q24 23 88 64q-108 61 -108 155q0 66 50 115t128 49zM238 603q-42 0 -67.5 -31t-25.5 -72q0 -50 32 -80
t98 -62q61 48 61 124q0 59 -29.5 90t-68.5 31zM247 20q47 0 77.5 33.5t30.5 89.5q0 51 -38.5 86t-109.5 71q-82 -55 -82 -137q0 -66 36 -104.5t86 -38.5z" />
    <glyph glyph-name="nine" unicode="9" horiz-adv-x="480" 
d="M242 635q91 0 144.5 -72t53.5 -178q0 -133 -65 -229.5t-171 -138.5q-79 -32 -140 -32l-5 30q109 18 185 90.5t100 185.5l-67 -36q-29 -16 -60 -16q-79 0 -129 52t-50 131t56.5 146t147.5 67zM229 602q-52 0 -78.5 -45.5t-26.5 -99.5q0 -68 36.5 -114.5t97.5 -46.5
q53 0 90 28q4 29 4 66q0 36 -6 70.5t-19 68t-38.5 53.5t-59.5 20z" />
    <glyph glyph-name="colon" unicode=":" horiz-adv-x="228" 
d="M114 411q24 0 40 -15.5t16 -40.5t-16 -41.5t-40 -16.5t-39.5 16.5t-15.5 41.5t15.5 40.5t39.5 15.5zM115 -12q-24 0 -40 16t-16 42q0 24 16 40.5t40 16.5t40 -16.5t16 -40.5q0 -26 -16 -42t-40 -16z" />
    <glyph glyph-name="semicolon" unicode=";" horiz-adv-x="228" 
d="M114 411q24 0 39.5 -16t15.5 -41t-15.5 -41t-39.5 -16t-40 16t-16 41t16 41t40 16zM94 130q32 0 62 -30t30 -78q0 -53 -38 -88t-92 -52l-11 30q76 32 76 84t-62 67q-13 3 -13 25q0 18 14.5 30t33.5 12z" />
    <glyph glyph-name="less" unicode="&#x3c;" horiz-adv-x="552" 
d="M493 0l-433 230v47l433 230v-56l-374 -197v-2l374 -196v-56z" />
    <glyph glyph-name="equal" unicode="=" horiz-adv-x="580" 
d="M529 321h-477v50h477v-50zM529 138h-477v50h477v-50z" />
    <glyph glyph-name="greater" unicode="&#x3e;" horiz-adv-x="552" 
d="M492 230l-432 -230v56l374 196v2l-374 197v56l432 -230v-47z" />
    <glyph glyph-name="question" unicode="?" horiz-adv-x="379" 
d="M219 216l-18 -23q-36 13 -73.5 51t-37.5 79q0 26 18.5 51.5t65.5 60.5q1 1 12.5 9t15 11t14 11t14.5 12l14 13l12 13l8 14l7 14l2 14q0 26 -16 40.5t-44 14.5t-53.5 -13.5t-41 -27t-19.5 -13.5q-11 0 -26 13.5t-15 30.5q0 18 21 36t48.5 28t44.5 10q62 0 111 -49t49 -111
q0 -48 -48 -88q-6 -5 -29.5 -22.5t-38.5 -30t-29 -31.5t-14 -36q0 -40 46 -81zM184 -12q-24 0 -39.5 16t-15.5 42q0 24 16 40.5t39 16.5q24 0 40 -16.5t16 -40.5q0 -26 -16 -42t-40 -16z" />
    <glyph glyph-name="at" unicode="@" horiz-adv-x="753" 
d="M545 -14l11 -28q-92 -54 -203 -54q-127 0 -214.5 79.5t-87.5 224.5q0 112 56 198.5t142 129.5t184 43q129 0 204.5 -74.5t75.5 -182.5q0 -103 -68 -175.5t-168 -72.5q-36 0 -45 20t0 51l11 57l-2 1q-27 -41 -82.5 -85t-87.5 -44q-20 0 -34 21.5t-14 62.5q0 46 20 97.5
t61 90.5q76 73 160 74q3 0 50 -7q23 -5 34 -5q-23 -92 -49 -227q-7 -40 -3 -53t23 -12q56 2 101 57t45 149q0 101 -66 159.5t-171 58.5q-139 0 -225.5 -90.5t-86.5 -231.5q0 -52 14.5 -98t45 -86t84 -63t125.5 -23q41 0 89 12.5t71 25.5zM423 380q-38 0 -66 -30
q-22 -26 -39.5 -74t-18.5 -94q0 -44 21 -44q16 0 53.5 31.5t77.5 88.5q9 28 26 111q-24 11 -54 11z" />
    <glyph glyph-name="A" unicode="A" horiz-adv-x="691" 
d="M673 0h-245v28q47 6 58 16t1 39l-55 154h-213q-31 -88 -44 -129q-16 -47 -5.5 -61t67.5 -19v-28h-217v28q49 7 68 23t44 80l207 525l31 9l193 -536q24 -64 42 -80t68 -21v-28zM418 280l-88 255h-2l-94 -255h184z" />
    <glyph glyph-name="B" unicode="B" horiz-adv-x="588" 
d="M372 353v-3q177 -27 177 -159q0 -97 -96 -151q-73 -40 -196 -40h-221v28q65 5 78.5 19t13.5 77v403q0 63 -12 77t-72 18v28h257q102 0 150 -34q56 -37 56 -114q0 -64 -40.5 -99t-94.5 -50zM212 362h47q81 0 118.5 32t37.5 96q0 56 -33 92t-100 36q-40 0 -57 -10
q-13 -9 -13 -50v-196zM212 329v-204q0 -54 17.5 -72.5t65.5 -18.5q67 1 111 37.5t44 109.5q0 148 -192 148h-46z" />
    <glyph glyph-name="C" unicode="C" horiz-adv-x="665" 
d="M614 176l29 -11q-33 -110 -57 -153q-108 -27 -184 -27q-90 0 -160.5 29t-112.5 77t-63.5 105.5t-21.5 119.5q0 156 108 252.5t277 96.5q36 0 71.5 -5t69 -13.5t36.5 -8.5q15 -110 20 -151l-30 -7q-19 79 -65.5 114t-128.5 35q-119 0 -187.5 -86t-68.5 -207
q0 -140 73.5 -227.5t188.5 -87.5q73 0 119.5 37.5t86.5 117.5z" />
    <glyph glyph-name="D" unicode="D" horiz-adv-x="735" 
d="M42 650h281q194 0 283 -85q84 -82 84 -215q0 -174 -123 -267q-107 -83 -297 -83h-237v27q65 5 79.5 19.5t14.5 77.5v401q0 45 -6 62.5t-21.5 24t-57.5 9.5v29zM213 547v-416q0 -55 24.5 -75t81.5 -20q133 0 203 85.5t70 214.5q0 80 -30 142.5t-88 96.5q-64 41 -170 41
q-61 0 -78 -12q-13 -9 -13 -57z" />
    <glyph glyph-name="E" unicode="E" horiz-adv-x="568" 
d="M516 162l30 -4q-18 -100 -35 -158h-482v28q68 5 83.5 20t15.5 76v398q0 66 -13 80.5t-73 19.5v28h446q0 -8 8 -144l-29 -5q-11 50 -32 86q-11 16 -35 22t-78 6h-76q-23 0 -28 -4.5t-5 -27.5v-227h94q66 0 82 11.5t26 63.5h29v-192h-29q-10 54 -26 66t-81 12h-95v-189
q0 -64 24 -81q21 -13 104 -13q57 0 83 7t43 27q30 35 49 94z" />
    <glyph glyph-name="F" unicode="F" horiz-adv-x="529" 
d="M493 503l-30 -4q-11 54 -28 80q-12 21 -35 28.5t-79 7.5h-76q-22 0 -27 -4.5t-5 -26.5v-238h103q66 0 82 11.5t26 61.5h28v-192h-28q-10 54 -26 67t-82 13h-103v-181q0 -64 15 -78.5t84 -19.5v-28h-272v28q61 5 74.5 19.5t13.5 78.5v398q0 64 -13 78.5t-72 19.5v28h440
q0 -53 10 -147z" />
    <glyph glyph-name="G" unicode="G" horiz-adv-x="715" 
d="M692 301v-27q-45 -7 -54.5 -18t-9.5 -55v-85q0 -62 7 -94q-153 -37 -224 -37q-164 0 -265.5 93t-101.5 242q0 84 32 151.5t86 108.5t121.5 63t142.5 22q23 0 47.5 -2t47.5 -6t39 -7l34 -8l24 -6q7 -82 16 -156l-28 -6q-17 86 -67 120.5t-128 34.5q-117 0 -191 -80.5
t-74 -216.5q0 -56 17 -110t49.5 -100t87.5 -74t124 -28q51 0 87 18q17 9 24.5 22.5t7.5 42.5v85q0 54 -16 67t-89 19v27h254z" />
    <glyph glyph-name="H" unicode="H" horiz-adv-x="766" 
d="M729 650v-28q-62 -5 -76 -19.5t-14 -75.5v-404q0 -62 13.5 -76t75.5 -19v-28h-268v28q65 5 79.5 19t14.5 76v200h-341v-200q0 -62 14 -76t76 -19v-28h-263v28q61 5 74.5 19t13.5 76v404q0 62 -13.5 76t-76.5 19v28h259v-28q-58 -5 -71 -19.5t-13 -75.5v-162h341v162
q0 61 -13.5 75.5t-72.5 19.5v28h261z" />
    <glyph glyph-name="I" unicode="I" horiz-adv-x="341" 
d="M303 0h-265v28q62 5 76 19.5t14 77.5v400q0 63 -14 77.5t-76 19.5v28h265v-28q-62 -5 -76 -19.5t-14 -77.5v-400q0 -64 14 -78t76 -19v-28z" />
    <glyph glyph-name="J" unicode="J" horiz-adv-x="329" 
d="M303 650v-28q-58 -5 -71.5 -19.5t-13.5 -77.5v-374q0 -98 -18.5 -155.5t-67.5 -102.5q-48 -44 -93 -58l-13 28q80 40 96 131q11 59 11 190v341q0 63 -14 77.5t-75 19.5v28h259z" />
    <glyph glyph-name="K" unicode="K" horiz-adv-x="673" 
d="M667 0h-154l-248 291q-28 33 -54 28v-190q0 -65 15 -80.5t77 -20.5v-28h-260v28q58 5 71.5 20.5t13.5 80.5v391q0 37 -2 54t-13 28.5t-25.5 14t-47.5 5.5v28h258v-28q-59 -5 -73 -20.5t-14 -81.5v-175q29 8 70 46q110 106 168 177q22 27 19.5 37t-36.5 14l-22 3v28h240
v-28q-57 -5 -86 -18.5t-77 -56.5q-49 -45 -177 -175q116 -144 235 -272q39 -41 61.5 -54t60.5 -18v-28z" />
    <glyph glyph-name="L" unicode="L" horiz-adv-x="538" 
d="M495 163l30 -6q-19 -99 -36 -157h-453v28q63 5 77.5 20t14.5 78v400q0 45 -6 62.5t-22 24t-60 9.5v28h261v-28q-60 -5 -74 -19t-14 -77v-395q0 -41 5 -59t18 -25q24 -13 96 -13q85 0 112 31q31 36 51 98z" />
    <glyph glyph-name="M" unicode="M" horiz-adv-x="891" 
d="M861 0h-263v28q61 6 73 23t11 96l-3 408h-4l-244 -548h-20l-224 534h-2l-15 -285q-5 -97 -3 -166q1 -34 20 -45t72 -17v-28h-233v28q45 5 62.5 17t22.5 43q11 75 19 183l14 208q3 36 3.5 55t-2.5 37.5t-6.5 25t-16.5 13t-25.5 8t-39.5 4.5v28h164l228 -500l231 500h170
v-28q-16 -1 -24 -2t-19.5 -3t-16 -3.5t-11.5 -5t-9.5 -7t-6 -10.5t-4 -13.5t-1.5 -18t-0.5 -22.5t0.5 -28l10 -362q2 -80 15 -96.5t78 -22.5v-28z" />
    <glyph glyph-name="N" unicode="N" horiz-adv-x="743" 
d="M719 650v-28q-43 -2 -62 -15t-22 -45q-6 -45 -6 -168v-403h-31l-426 524h-2v-251q0 -111 6 -169q4 -37 24 -50.5t72 -16.5v-28h-237v28q45 2 64.5 15.5t23.5 49.5q6 62 6 171v220q0 53 -3 67.5t-17 33.5q-25 32 -89 37v28h148l417 -502h3v246q0 101 -7 166
q-4 33 -24.5 46t-73.5 16v28h236z" />
    <glyph glyph-name="O" unicode="O" horiz-adv-x="747" 
d="M380 665q132 0 227.5 -93t95.5 -239q0 -158 -96 -253t-238 -95q-137 0 -231 95t-94 238q0 142 92.5 244.5t243.5 102.5zM360 629q-89 0 -151.5 -74.5t-62.5 -208.5q0 -141 69 -233t175 -92q89 0 150 74t61 211q0 152 -69 237.5t-172 85.5z" />
    <glyph glyph-name="P" unicode="P" horiz-adv-x="563" 
d="M46 650h247q112 0 168 -42q65 -48 65 -141q0 -90 -57 -142t-138 -63q-26 -2 -45 0l-74 19v-157q0 -63 15.5 -77t83.5 -19v-28h-271v28q60 5 74 20t14 77v400q0 65 -12.5 79t-69.5 18v28zM212 559v-245q31 -12 73 -12q59 0 102 38t43 124q0 77 -42.5 115.5t-108.5 38.5
q-44 0 -56 -12q-11 -10 -11 -47z" />
    <glyph glyph-name="Q" unicode="Q" horiz-adv-x="745" 
d="M720 -138l-8 -21q-67 -1 -128 15q-69 18 -230 130q-124 7 -206 86q-104 97 -104 242t92.5 248t247.5 103q130 0 224.5 -94t94.5 -241q0 -125 -65.5 -211.5t-161.5 -116.5q123 -85 244 -140zM348 25l68 22l13 -9l14 -10q66 19 112 90t46 184q0 152 -67.5 239t-173.5 87
q-89 0 -151.5 -75.5t-62.5 -211.5q0 -125 56.5 -211.5t145.5 -104.5z" />
    <glyph glyph-name="R" unicode="R" horiz-adv-x="621" 
d="M631 18l-4 -26q-23 0 -35 1q-57 3 -93 23t-69 68q-21 30 -101 160q-13 22 -31 31t-55 9h-32v-159q0 -63 14 -77.5t75 -19.5v-28h-263v28q62 5 76.5 19.5t14.5 77.5v402q0 62 -13 76t-73 19v28h248q108 0 160 -34q66 -43 66 -131q0 -116 -127 -171q26 -51 89 -145
q45 -65 81 -104q33 -36 72 -47zM211 317h48q74 0 109 28q55 42 55 124q0 76 -42 112t-105 36q-41 0 -54 -10q-11 -8 -11 -44v-246z" />
    <glyph glyph-name="S" unicode="S" horiz-adv-x="474" 
d="M409 504l-29 -6q-8 29 -16 48.5t-23 41t-38 32.5t-54 11q-54 0 -82.5 -32.5t-28.5 -77.5q0 -51 30 -82t97 -66q33 -17 49 -26t44.5 -29t42.5 -37.5t25.5 -46t11.5 -60.5q0 -80 -62 -134.5t-160 -54.5q-44 0 -98 15q-32 11 -49 21q-11 30 -27 155l29 7q7 -27 18.5 -52
t30.5 -51.5t49 -42.5t66 -16q56 0 88 32.5t32 87.5q0 51 -31.5 82t-98.5 67q-26 14 -35 20l-35 20l-37 30l-28 32l-23 44l-7 51q0 75 56 126.5t150 51.5q53 0 126 -23z" />
    <glyph glyph-name="T" unicode="T" horiz-adv-x="617" 
d="M592 498l-29 -3q-15 67 -32 89q-12 19 -32.5 25t-75.5 6h-71v-492q0 -60 16 -75.5t87 -19.5v-28h-287v28q68 4 83.5 19.5t15.5 75.5v492h-62q-60 0 -83 -6.5t-33 -24.5q-13 -18 -32 -89h-29q10 116 12 180h20q10 -16 21 -20.5t34 -4.5h395q19 0 28.5 5t22.5 20h21
q0 -61 10 -177z" />
    <glyph glyph-name="U" unicode="U" horiz-adv-x="736" 
d="M716 650v-28q-45 -3 -64.5 -16t-23.5 -43q-5 -45 -5 -162v-83q0 -184 -76 -264q-66 -69 -179 -69q-98 0 -160 48q-88 67 -88 238v250q0 66 -13.5 81t-73.5 20v28h259v-28q-60 -4 -73.5 -19t-13.5 -82v-228q0 -122 48 -187.5t140 -65.5q189 0 189 285v76q0 111 -7 165
q-4 29 -24 40.5t-73 15.5v28h238z" />
    <glyph glyph-name="V" unicode="V" horiz-adv-x="703" 
d="M687 650v-28q-52 -6 -71.5 -23t-47.5 -84q-136 -329 -208 -525h-31l-207 543q-21 55 -39.5 69.5t-64.5 18.5v29h245v-28q-52 -6 -62 -16t3 -43l166 -436h2q118 295 158 420q15 43 3.5 55.5t-71.5 19.5v28h225z" />
    <glyph glyph-name="W" unicode="W" horiz-adv-x="971" 
d="M956 650v-28q-52 -7 -69 -22.5t-39 -77.5q-47 -132 -165 -532h-31l-175 498h-2l-163 -498h-31l-164 534q-18 60 -35.5 76t-65.5 22v28h243v-28q-53 -7 -63 -18.5t3 -49.5l122 -412h2l162 498h29l175 -498h2q80 253 113 400q12 45 0.5 59t-69.5 21v28h221z" />
    <glyph glyph-name="X" unicode="X" horiz-adv-x="654" 
d="M655 0h-263v28q46 5 55.5 14.5t-5.5 34.5l-133 214q-70 -108 -121 -202q-19 -32 -10.5 -43.5t58.5 -17.5v-28h-229v28q44 5 70 17t47 40q58 75 163 239l-134 214q-32 49 -53 63.5t-74 20.5v28h245v-28q-43 -5 -51.5 -14t4.5 -28q34 -58 115 -182q67 104 98 162
q19 33 11 44.5t-58 17.5v28h229v-28q-56 -6 -80 -19.5t-58 -57.5l-122 -179l158 -246q34 -52 60 -69.5t78 -22.5v-28z" />
    <glyph glyph-name="Y" unicode="Y" horiz-adv-x="634" 
d="M620 650v-28q-51 -6 -70 -19t-49 -60q-66 -106 -127 -219q-16 -32 -16 -63v-136q0 -63 15.5 -77.5t84.5 -19.5v-28h-283v28q67 5 82.5 19.5t15.5 77.5v133q0 22 -21 59l-126 220q-31 52 -49 66.5t-62 18.5v28h239v-28q-50 -6 -58.5 -18t8.5 -36q20 -39 134 -237
q87 155 119 225q18 37 9 48.5t-67 17.5v28h221z" />
    <glyph glyph-name="Z" unicode="Z" horiz-adv-x="603" 
d="M561 176l30 -6q-3 -12 -11 -48l-14 -70l-12 -52h-517l-8 15l421 599h-174q-77 0 -102 -7t-39 -29q-20 -29 -34 -87h-30q11 142 12 184h24q9 -16 19 -20.5t34 -4.5h399l7 -14l-413 -594q49 -6 163 -6q94 0 132 7.5t59 29.5q27 30 54 103z" />
    <glyph glyph-name="bracketleft" unicode="[" horiz-adv-x="345" 
d="M290 -163h-170v866h170v-28q-79 -6 -94 -19t-15 -72v-628q0 -59 14.5 -71.5t94.5 -19.5v-28z" />
    <glyph glyph-name="backslash" unicode="\" horiz-adv-x="333" 
d="M299 -44h-57l-206 709h56z" />
    <glyph glyph-name="bracketright" unicode="]" horiz-adv-x="345" 
d="M226 -163h-171v28q44 4 63 6.5t31.5 14t14 25t1.5 47.5v626q0 33 -1.5 46.5t-14 25t-31.5 14t-63 6.5v27h171v-866z" />
    <glyph glyph-name="asciicircum" unicode="^" horiz-adv-x="566" 
d="M496 211h-59l-155 346l-157 -346h-55l192 412h43z" />
    <glyph glyph-name="underscore" unicode="_" horiz-adv-x="500" 
d="M500 -125h-500v50h500v-50z" />
    <glyph glyph-name="grave" unicode="`" 
d="M247 504l-27 -13l-117 160l3 8q7 4 37 9t41 4l31 -83z" />
    <glyph glyph-name="a" unicode="a" horiz-adv-x="439" 
d="M433 39l-85 -51q-26 0 -47 19q-16 17 -24 45q-5 -3 -24 -16.5t-27 -18.5t-23 -13.5t-25 -12t-19 -3.5q-52 0 -86 36.5t-34 85.5q0 71 81 99q128 43 155 65v18q0 53 -23 83t-61 30q-28 0 -45 -20q-17 -17 -30 -66q-6 -23 -29 -23q-14 0 -29 13.5t-15 29.5t32 40
q79 56 150 70q49 0 82 -27q45 -37 45 -122v-186q0 -60 35 -60q18 0 36 11zM275 84v156q-12 -6 -49 -23t-41 -19q-31 -14 -46 -30.5t-15 -42.5q0 -36 22.5 -56.5t48.5 -20.5q44 2 80 36z" />
    <glyph glyph-name="b" unicode="b" horiz-adv-x="508" 
d="M152 404l81 35q23 10 41 10q81 0 139 -61t58 -149q0 -108 -74 -179.5t-177 -71.5q-71 0 -147 36v556q0 47 -9.5 58.5t-56.5 15.5v23q71 9 145 35v-308zM152 374v-258q0 -20 6 -34q6 -19 29.5 -37t59.5 -19q62 0 99 50t37 137q0 83 -44 131.5t-109 48.5q-47 0 -78 -19z
" />
    <glyph glyph-name="c" unicode="c" horiz-adv-x="423" 
d="M391 111l17 -21q-34 -45 -80.5 -73.5t-89.5 -28.5q-91 0 -145.5 62t-54.5 147q0 118 100 196q73 56 151 56q57 0 89 -26q16 -14 16 -31q0 -15 -12 -29t-21 -14q-7 0 -19 11q-44 41 -100 41q-52 0 -88 -42.5t-36 -117.5q0 -93 48.5 -139t102.5 -46q63 0 122 55z" />
    <glyph glyph-name="d" unicode="d" horiz-adv-x="528" 
d="M517 51v-25q-101 -18 -155 -38v65l-61 -36q-49 -29 -78 -29q-68 0 -126.5 58t-58.5 155q0 103 77.5 175.5t180.5 72.5q34 0 66 -11v141q0 49 -11.5 59.5t-65.5 14.5v24q91 12 156 35v-597q0 -38 7.5 -48t36.5 -13zM362 85v276q-35 51 -103 51q-19 0 -40 -9t-42 -28
t-34.5 -57.5t-13.5 -89.5q0 -83 42 -130t95 -47q51 0 96 34z" />
    <glyph glyph-name="e" unicode="e" horiz-adv-x="425" 
d="M379 106l16 -21q-42 -53 -87 -75t-76 -22q-89 0 -142 62t-53 151q0 103 66 175q65 73 147 73q61 0 105.5 -46t44.5 -106q0 -27 -23 -32q-58 -10 -261 -17q1 -95 45.5 -143.5t103.5 -48.5q61 0 114 50zM226 412q-36 0 -65 -32t-40 -91q82 0 169 3q24 0 24 20
q1 41 -23.5 70.5t-64.5 29.5z" />
    <glyph glyph-name="f" unicode="f" horiz-adv-x="296" 
d="M54 437h47v22q0 47 11 82q22 71 77 117q53 47 110 54q52 -2 79 -34q13 -16 5 -35q-5 -13 -19 -24t-27 3q-41 37 -81 37q-35 0 -53 -30q-24 -36 -23 -152v-40h118q5 -7 1.5 -21t-11.5 -18h-108v-288q0 -55 13 -67t73 -18v-25h-236v26q49 5 60 16.5t11 60.5v295h-70l-4 10z
" />
    <glyph glyph-name="g" unicode="g" horiz-adv-x="468" 
d="M462 438l6 -8q-21 -38 -45 -51l-57 3q30 -35 30 -89q0 -76 -52.5 -118t-122.5 -42q-11 0 -51 5q-30 -19 -30 -41q0 -17 15.5 -28t47.5 -11q18 0 53.5 0.5t51.5 0.5q36 0 65.5 -8t54 -36t24.5 -74q0 -76 -75.5 -137t-174.5 -61q-78 0 -125 37.5t-48 84.5q0 32 24 56
q31 31 83 70q-49 15 -74 55q-13 22 -11 42q56 21 88 61q-37 16 -62.5 51t-25.5 83q0 79 56.5 122.5t122.5 43.5q51 0 96 -25q69 3 136 14zM220 419q-35 0 -59 -32t-24 -88q0 -59 26 -96.5t68 -37.5q35 1 59 32t24 87q0 60 -26 97.5t-68 37.5zM242 -11q-63 0 -88 -22
q-46 -37 -46 -78q0 -40 38 -67.5t94 -27.5q69 0 106.5 31t37.5 80q0 52 -46 71q-32 13 -96 13z" />
    <glyph glyph-name="h" unicode="h" horiz-adv-x="534" 
d="M513 0h-211v26q44 5 55 17t11 60v166q0 123 -98 123q-59 0 -104 -51v-238q0 -48 10 -60.5t54 -16.5v-26h-212v26q46 4 57.5 16t11.5 61v477q0 48 -9.5 59t-58.5 15v23q63 9 147 35v-336q71 73 143 73q64 0 101 -42t37 -129v-175q0 -49 10.5 -61t55.5 -16v-26z" />
    <glyph glyph-name="i" unicode="i" horiz-adv-x="268" 
d="M135 536q-20 0 -35 15.5t-15 35.5q0 22 15 37t36 15t35.5 -15t14.5 -37q0 -21 -15 -36t-36 -15zM252 0h-220v26q48 5 59 17t11 63v206q0 47 -9 58t-54 18v24q76 12 142 39v-345q0 -51 11.5 -63t59.5 -17v-26z" />
    <glyph glyph-name="j" unicode="j" horiz-adv-x="256" 
d="M135 536q-20 0 -35 15.5t-15 35.5q0 22 15 37t36 15q20 0 34.5 -15t14.5 -37q0 -21 -14.5 -36t-35.5 -15zM34 389v23q83 12 146 39v-339q0 -98 -23 -162q-22 -66 -59 -120t-62 -76q-12 -11 -25 -11q-11 0 -23.5 13.5t-12.5 30.5q0 19 21 23q54 14 72 38q18 22 25 72
q9 65 9 193v195q0 50 -10.5 62t-57.5 19z" />
    <glyph glyph-name="k" unicode="k" horiz-adv-x="496" 
d="M513 0l-137 -2q-16 18 -164 198q-17 22 -31 22q-5 0 -16 -3v-111q0 -49 12 -61t61 -17v-26h-224v26q50 4 61.5 17t11.5 61v473q0 49 -10 60.5t-56 16.5v23q57 6 144 35v-471q37 7 63 35q31 31 71 88q16 23 10.5 31.5t-40.5 12.5v26l204 9v-25q-51 -9 -75.5 -20t-53.5 -39
q-31 -31 -86 -95q14 -22 71 -88.5t84 -94.5q27 -29 49.5 -41.5t50.5 -13.5v-26z" />
    <glyph glyph-name="l" unicode="l" horiz-adv-x="253" 
d="M238 0h-223v26q48 5 60 17t12 61v473q0 50 -10.5 61t-58.5 15v24q73 8 148 35v-608q0 -49 11.5 -61t60.5 -17v-26z" />
    <glyph glyph-name="m" unicode="m" horiz-adv-x="819" 
d="M796 0h-213v26q46 5 58 17.5t12 63.5v167q0 116 -88 116q-50 0 -112 -52q3 -18 3 -42v-195q0 -46 11 -58t53 -17v-26h-214v26q48 5 59.5 17t11.5 60v172q0 115 -87 115q-47 0 -109 -52v-235q0 -48 9.5 -60t47.5 -17v-26h-211v26q50 5 62.5 17t12.5 60v207q0 48 -9 59.5
t-52 18.5v23q81 15 139 41v-81l32 23l41 28q44 27 82 27q36 0 66 -21.5t45 -60.5q39 30 83 56q39 26 75 26q59 0 93 -40t34 -113v-193q0 -49 10.5 -60.5t54.5 -16.5v-26z" />
    <glyph glyph-name="n" unicode="n" horiz-adv-x="547" 
d="M523 0h-208v26q44 5 55 18t11 65v167q0 114 -91 114q-50 0 -109 -51v-235q0 -50 10 -61.5t55 -16.5v-26h-217v26q51 5 62 17t11 61v207q0 47 -9 58t-51 19v23q83 16 139 41v-80l67 47q47 30 83 30q60 0 94.5 -40t34.5 -112v-193q0 -50 9.5 -61.5t53.5 -16.5v-26z" />
    <glyph glyph-name="o" unicode="o" horiz-adv-x="510" 
d="M256 449q92 0 154.5 -64.5t62.5 -158.5q0 -112 -67 -175t-150 -63q-98 0 -158.5 66.5t-60.5 154.5q0 59 21 106.5t54.5 75.5t70.5 43t73 15zM246 416q-49 0 -82.5 -47t-33.5 -128q0 -96 38 -158t99 -62q51 0 82 43.5t31 139.5q0 92 -35.5 152t-98.5 60z" />
    <glyph glyph-name="p" unicode="p" horiz-adv-x="524" 
d="M169 380l92 54q27 15 49 15q80 0 128.5 -55.5t48.5 -133.5q0 -108 -72.5 -180.5t-176.5 -91.5q-38 1 -69 18v-131q0 -56 13 -69.5t72 -18.5v-27h-237v27q49 5 61 17t12 61v452q0 48 -9.5 58.5t-56.5 16.5v24q66 11 145 43v-79zM169 347v-271q37 -39 94 -39
q63 0 101.5 50.5t38.5 134.5q0 77 -38.5 122t-95.5 45q-43 0 -100 -42z" />
    <glyph glyph-name="q" unicode="q" horiz-adv-x="511" 
d="M515 -242h-240v27q59 5 72 17.5t13 65.5v162l-106 -42q-102 0 -158.5 64.5t-56.5 145.5q0 105 81 178.5t186 72.5q48 -4 70 -13q16 -5 27 -5q10 0 34 11l4 -3q-3 -63 -3 -107v-465q0 -52 11.5 -64t65.5 -18v-27zM360 60v307q-17 19 -45 30.5t-53 11.5q-55 0 -94.5 -47
t-39.5 -131q0 -85 48.5 -136t109.5 -51q38 0 74 16z" />
    <glyph glyph-name="r" unicode="r" horiz-adv-x="371" 
d="M181 343h2q64 106 121 106q24 0 41 -15.5t17 -34.5q0 -34 -32 -49q-18 -7 -27 2q-20 21 -42 21q-20 0 -42 -22.5t-38 -63.5v-183q0 -50 12.5 -62t69.5 -16v-26h-230v26q47 5 58 17t11 61v207q0 49 -9.5 60.5t-52.5 17.5v22q75 12 141 41v-109z" />
    <glyph glyph-name="s" unicode="s" horiz-adv-x="367" 
d="M320 325l-26 -6q-32 99 -103 99q-28 0 -46.5 -20t-18.5 -49q0 -31 22.5 -50.5t62.5 -36.5q62 -26 94 -57t32 -79q0 -64 -50 -101t-115 -37q-35 0 -67.5 10.5t-47.5 23.5q-5 10 -10.5 50.5t-5.5 67.5l26 5q14 -53 47 -88.5t76 -35.5q29 0 50 19.5t21 50.5t-19.5 51.5
t-59.5 39.5q-29 13 -46 23t-38 27t-31 39t-10 49q0 54 42.5 91.5t109.5 37.5q44 0 89 -17q14 -40 22 -107z" />
    <glyph glyph-name="t" unicode="t" horiz-adv-x="305" 
d="M298 36l-68 -35q-25 -13 -42 -13q-98 0 -98 119v291h-69l-4 10l27 29h46v73l65 66l14 -2v-137h113q7 -7 5 -20.5t-11 -18.5h-107v-257q0 -96 58 -96q28 0 62 17z" />
    <glyph glyph-name="u" unicode="u" horiz-adv-x="531" 
d="M518 49v-25q-55 -8 -147 -36l-6 6v71q-54 -40 -74 -52q-43 -25 -77 -25q-55 0 -89.5 36.5t-34.5 112.5v196q0 41 -9 51.5t-52 18.5v23q71 5 143 18q-3 -31 -3 -146v-134q0 -113 88 -113q59 0 108 48v233q0 42 -12 52.5t-66 18.5v23q97 6 157 18v-334q0 -37 8.5 -47
t37.5 -12z" />
    <glyph glyph-name="v" unicode="v" horiz-adv-x="463" 
d="M477 437v-25q-39 -5 -53.5 -18t-34.5 -58q-80 -182 -141 -347h-27q-47 126 -138 350q-17 44 -31 55.5t-54 17.5v25h205v-25q-40 -5 -46.5 -15.5t6.5 -42.5l95 -247q41 97 89 239q12 36 3 48.5t-51 17.5v25h178z" />
    <glyph glyph-name="w" unicode="w" horiz-adv-x="685" 
d="M696 437v-25q-37 -6 -50.5 -19t-29.5 -56q-21 -55 -120 -348h-28l-70 179l-52 132q-116 -305 -118 -311h-29q-54 178 -115 357q-13 39 -26 50t-49 16v25h207v-25q-45 -8 -53 -17.5t3 -43.5l73 -233h2l116 314h26q43 -121 120 -317h2q51 159 68 230q10 39 0.5 49.5
t-58.5 17.5v25h181z" />
    <glyph glyph-name="x" unicode="x" horiz-adv-x="472" 
d="M475 0h-215v26q33 4 39.5 12t-5.5 28l-74 117q-39 -58 -64 -106q-15 -25 -9 -35t44 -16v-26h-187v26q46 6 64 17t49 49q34 43 84 120l-87 136q-22 37 -39.5 48t-58.5 16v25h200v-25q-32 -4 -37 -13t9 -30l59 -92q35 50 58 93q13 24 7 31t-39 11v25h182v-25
q-47 -5 -65 -14t-45 -40q-25 -31 -78 -110l98 -148q28 -43 46.5 -55.5t63.5 -18.5v-26z" />
    <glyph glyph-name="y" unicode="y" horiz-adv-x="459" 
d="M478 437v-25q-40 -6 -54.5 -18t-34.5 -55q-11 -23 -26 -60l-43 -107l-56 -134q-86 -205 -103 -271q-6 -24 -32 -24q-21 0 -39 15t-18 33q0 19 26 36q41 27 74 89q23 42 31 69q7 22 -1 45q-70 199 -115 306q-16 43 -31 56.5t-55 19.5v25h203v-25q-34 -6 -41 -16.5t3 -38.5
l91 -251q47 115 92 249q9 29 -0.5 40t-51.5 17v25h181z" />
    <glyph glyph-name="z" unicode="z" horiz-adv-x="420" 
d="M387 138l26 -12l-24 -65l-22 -61h-330l-6 15q114 168 249 389h-89q-52 0 -71.5 -13.5t-41.5 -58.5l-14 -27l-25 9q20 68 34 145h21q8 -22 55 -22h230l6 -14l-244 -390h99q54 0 78.5 16.5t55.5 64.5z" />
    <glyph glyph-name="braceleft" unicode="{" horiz-adv-x="347" 
d="M293 -141v-28q-145 0 -145 129q0 37 3.5 107.5t3.5 100.5q0 17 -2 28.5t-10 25.5t-27.5 22.5t-50.5 10.5v30q31 2 50.5 10.5t27.5 22.5t10 25.5t2 28.5q0 33 -3.5 103t-3.5 102q0 132 145 132v-28q-51 -7 -67.5 -30.5t-16.5 -63.5q0 -32 6.5 -99t6.5 -100q0 -97 -83 -116
v-4q42 -9 62.5 -40.5t20.5 -75.5q0 -35 -6.5 -100t-6.5 -96q0 -41 16.5 -65t67.5 -32z" />
    <glyph glyph-name="bar" unicode="|" horiz-adv-x="263" 
d="M163 -250h-64v1000h64v-1000z" />
    <glyph glyph-name="braceright" unicode="}" horiz-adv-x="347" 
d="M283 284v-29q-31 -2 -51 -10.5t-28 -23.5t-10 -26.5t-2 -29.5q0 -29 4 -98.5t4 -107.5q0 -128 -146 -128v28q50 8 67.5 31.5t17.5 62.5q0 31 -7 98.5t-7 99.5q0 96 84 117v4q-84 20 -84 116q0 33 7 100.5t7 99.5q0 39 -17.5 62.5t-67.5 30.5v28q28 0 50 -4t45.5 -16.5
t37 -40t13.5 -68.5q0 -38 -4 -107t-4 -97q0 -18 2 -30t10 -27t28 -24t51 -11z" />
    <glyph glyph-name="asciitilde" unicode="~" horiz-adv-x="580" 
d="M489 308l36 -21q-33 -110 -127 -110q-51 0 -127 45q-53 33 -90 33q-59 0 -91 -86l-35 26q43 110 130 110q47 0 117 -39q66 -39 102 -39q56 0 85 81z" />
    <glyph glyph-name="uni00A0" unicode="&#xa0;" horiz-adv-x="227" 
 />
    <glyph glyph-name="exclamdown" unicode="&#xa1;" horiz-adv-x="276" 
d="M137 447q25 0 41 -16.5t16 -42.5q0 -25 -16 -41.5t-41 -16.5t-41 16.5t-16 41.5q0 26 16 42.5t41 16.5zM138 -229q-54 0 -54 30q0 8 7 78q12 108 30 359q4 5 18 5.5t17 -5.5l8 -118l10 -132l10 -109q8 -64 8 -78q0 -30 -54 -30z" />
    <glyph glyph-name="cent" unicode="&#xa2;" horiz-adv-x="480" 
d="M417 219l17 -23q-30 -39 -71 -65.5t-78 -32.5v-98h-35v96q-87 2 -143 62t-56 140q0 112 93 184q48 35 106 49v84h35v-80q7 1 17 1q64 0 102 -26q14 -10 14 -25t-12 -29t-24 -14q-6 0 -15 9q-36 36 -82 42v-333q70 -1 132 59zM250 164v330q-46 -1 -83.5 -40.5
t-37.5 -114.5q0 -79 36.5 -122t84.5 -53z" />
    <glyph glyph-name="sterling" unicode="&#xa3;" horiz-adv-x="480" 
d="M375 295h-170v-23q0 -92 -86 -173q42 0 104 -27q82 -38 120 -38q27 0 42.5 12.5t15.5 33.5q0 13 -7 32q-6 10 2 22q17 26 36 26q10 0 17 -13t7 -28q0 -32 -23.5 -63.5t-54.5 -51.5q-45 -31 -90 -31q-42 0 -134 53q-42 24 -59 24q-24 0 -41 -43q-4 -12 -12 -12
q-12 0 -17.5 13t5.5 35q4 8 47 58q42 46 42 135q0 14 -3 59h-88v38h83q-5 63 -5 82q0 108 83 175q23 19 53 32t51 13q31 0 59 -13.5t38 -27.5q10 -16 3 -31q-6 -13 -19 -23t-27 2q-50 42 -94 42q-71 0 -71 -96q0 -41 19 -155h174v-38z" />
    <glyph glyph-name="currency" unicode="&#xa4;" horiz-adv-x="480" 
d="M448 135l-41 -40l-64 75q-47 -39 -105 -39q-62 0 -107 38l-63 -74l-40 40l69 66q-43 52 -43 124t44 122l-70 68l40 39l64 -75q46 39 107 39q58 0 105 -38l63 74l41 -39l-69 -68q43 -49 43 -122q0 -71 -44 -123zM239 469q-54 0 -89 -40t-35 -104t35.5 -104.5t88.5 -40.5
t88 40.5t35 104.5t-35 104t-88 40z" />
    <glyph glyph-name="yen" unicode="&#xa5;" horiz-adv-x="480" 
d="M466 623v-26q-39 -5 -54.5 -17.5t-37.5 -53.5q-32 -57 -98 -195h116v-36h-123v-70h123v-37h-123v-81q0 -51 13 -63.5t73 -16.5v-27h-250v27q60 4 72.5 16.5t12.5 63.5v81h-119v37h119v70h-119v36h109q-6 14 -90 196q-21 43 -34.5 54t-48.5 16v26h203v-26l-26 -5
q-21 -4 -25.5 -10t1.5 -22q8 -22 24 -58l36 -82l30 -68q63 129 88 195q10 21 5.5 30.5t-27.5 14.5l-28 5v26h178z" />
    <glyph glyph-name="brokenbar" unicode="&#xa6;" horiz-adv-x="263" 
d="M163 325h-64v350h64v-350zM163 -175h-64v350h64v-350z" />
    <glyph glyph-name="section" unicode="&#xa7;" horiz-adv-x="477" 
d="M426 202q-1 -106 -98 -214q-67 -70 -139 -92q-40 0 -69 22q-19 16 -19 30q0 17 20 32q11 7 22 4q39 -29 78 -29q27 0 48 16t22 45q1 40 -67 104l-98 98q-72 68 -72 152q1 87 79 172q40 43 73 65.5t78 33.5q41 0 66 -23q12 -11 12 -23q0 -20 -18 -33q-11 -8 -20 -1
q-30 27 -75 27q-31 0 -47.5 -17t-16.5 -36q0 -36 37 -68l110 -96q94 -79 94 -169zM104 413q0 -79 89 -162q101 -92 122 -127q22 -36 19 -78l2 -1q38 56 38 114q0 77 -80 148q-99 90 -111 102q-45 45 -39 99h-4q-35 -46 -36 -95z" />
    <glyph glyph-name="dieresis" unicode="&#xa8;" 
d="M116 538q-19 0 -33.5 14.5t-14.5 33.5q0 21 14.5 35.5t34.5 14.5q19 0 32.5 -14.5t13.5 -35.5q0 -19 -13.5 -33.5t-33.5 -14.5zM284 538q-19 0 -33 14.5t-14 33.5q0 21 14 35.5t34 14.5t33.5 -14.5t13.5 -35.5q0 -19 -14 -33.5t-34 -14.5z" />
    <glyph glyph-name="copyright" unicode="&#xa9;" horiz-adv-x="702" 
d="M351 626q127 0 213 -88t86 -216q0 -127 -85.5 -215t-213.5 -88t-214 88t-86 215q0 128 86 216t214 88zM351 591q-109 0 -181 -76.5t-72 -191.5t72 -192t181 -77q110 0 181.5 77t71.5 192t-71.5 191.5t-181.5 76.5zM481 263l22 -5q-18 -72 -26 -90q-54 -19 -104 -19
q-91 0 -140.5 51t-49.5 119q0 81 56.5 129t137.5 48q60 0 104 -17q7 -44 11 -91l-22 -4q-24 84 -100 84q-53 0 -83.5 -39.5t-30.5 -102.5q0 -65 33.5 -106.5t83.5 -41.5q73 0 108 85z" />
    <glyph glyph-name="ordfeminine" unicode="&#xaa;" horiz-adv-x="305" 
d="M295 302l-63 -33q-33 3 -45 39q-60 -39 -77 -39q-33 0 -55 23.5t-22 52.5q0 43 48 61q92 34 105 44v10q0 24 -13.5 39.5t-36.5 15.5q-32 0 -47 -53q-5 -15 -21 -15q-11 0 -21.5 8.5t-10.5 19.5q0 15 21 28q45 34 97 42q89 0 89 -88v-108q0 -34 21 -34q10 0 24 6zM186 332
v91q-12 -6 -62 -27q-29 -16 -29 -40q0 -20 13 -32t31 -12q25 0 47 20z" />
    <glyph glyph-name="guillemotleft" unicode="&#xab;" horiz-adv-x="444" 
d="M230 54l-22 -16q-106 135 -159 183q66 66 159 184l22 -15l-93 -169zM396 54l-23 -16q-105 133 -158 183q69 72 158 184l23 -15l-93 -169z" />
    <glyph glyph-name="logicalnot" unicode="&#xac;" horiz-adv-x="580" 
d="M529 97h-58v222h-419v49h477v-271z" />
    <glyph glyph-name="uni00AD" unicode="&#xad;" horiz-adv-x="356" 
d="M300 253l-15 -55h-228l14 55h229z" />
    <glyph glyph-name="registered" unicode="&#xae;" horiz-adv-x="321" 
d="M161 659q55 0 92.5 -38t37.5 -91q0 -52 -37.5 -90.5t-92.5 -38.5t-92 37t-37 92q0 53 37.5 91t91.5 38zM161 636q-44 0 -72 -30.5t-28 -75.5t28.5 -75t71.5 -30t72 30t29 75t-29 75.5t-72 30.5zM235 473l-4 -12q-32 0 -48 21q-4 5 -7 12l-7 12l-4 8q-5 7 -14 7h-4v-24
q0 -13 3 -15.5t16 -3.5v-16h-67v16q13 1 16 3.5t3 15.5v68q0 13 -2.5 15.5t-15.5 3.5v15h68q48 0 48 -35q0 -24 -27 -34q13 -24 33 -47q7 -7 13 -10zM147 536h9q12 0 17 4q11 6 11 21q0 23 -24 23q-13 0 -13 -12v-36z" />
    <glyph glyph-name="macron" unicode="&#xaf;" 
d="M310 548h-219v55h219v-55z" />
    <glyph glyph-name="degree" unicode="&#xb0;" horiz-adv-x="343" 
d="M172 664q57 0 98.5 -39t41.5 -99q0 -62 -41.5 -99.5t-98.5 -37.5q-58 0 -99 37.5t-41 99.5q0 61 41.5 99.5t98.5 38.5zM172 620q-35 0 -57.5 -25.5t-22.5 -67.5t22.5 -68t57.5 -26q36 0 58 26t22 67q0 42 -22 68t-58 26z" />
    <glyph glyph-name="plusminus" unicode="&#xb1;" horiz-adv-x="580" 
d="M529 311h-209v-204h-58v204h-210v49h210v191h58v-191h209v-49zM529 0h-477v50h477v-50z" />
    <glyph glyph-name="twosuperior" horiz-adv-x="341" 
d="M284 498l22 -8q-12 -38 -23 -88h-243v22q3 3 10 8l52 43l49 47l45 59l15 56q0 36 -19 54.5t-48 18.5q-44 0 -85 -55l-17 18l32 43q36 45 97 45q45 0 77.5 -29t32.5 -78q0 -35 -23.5 -67.5t-82.5 -84.5l-52 -46v-3h91q30 0 42.5 8t27.5 37z" />
    <glyph glyph-name="threesuperior" horiz-adv-x="341" 
d="M206 614v-2q40 -7 63.5 -29t23.5 -54q0 -42 -34.5 -75t-71.5 -46.5t-62 -13.5q-40 0 -68 21q-16 13 -11 29q4 13 18 23q10 8 20 -1q42 -33 76 -33q29 0 47 18.5t18 56.5q0 33 -22.5 50t-54.5 17q-20 0 -41 -7l-7 25q49 16 74.5 34t25.5 44q0 20 -14 33t-39 13
q-42 0 -75 -51l-16 17l29 41q34 36 87 36q43 0 69 -22t26 -54q0 -27 -19 -41q-16 -15 -42 -29z" />
    <glyph glyph-name="acute" unicode="&#xb4;" 
d="M193 493l-26 13q17 38 67 159q8 3 40.5 7t40.5 2l3 -9z" />
    <glyph glyph-name="mu" unicode="&#xb5;" horiz-adv-x="512" 
d="M498 54l10 -26q-13 -16 -37 -28t-48 -12q-31 0 -52 21.5t-26 56.5h-2q-67 -78 -133 -78q-53 0 -82 42h-4v-16q-1 -56 12 -141.5t25 -117.5l-13 -12q-16 1 -39.5 14t-35.5 25q-2 6 -2 259v294q0 61 -3 96l81 19q2 -24 2 -106v-171q0 -65 27.5 -94t64.5 -29q29 0 56 16.5
t43 36.5v329l80 18v-336q0 -70 41 -70q17 0 35 10z" />
    <glyph glyph-name="paragraph" unicode="&#xb6;" horiz-adv-x="497" 
d="M466 533l-30 -27l-88 -10v-474q0 -115 -67 -185q-20 -21 -48.5 -35.5t-38.5 -14.5q-43 0 -66 23q-16 15 -10 30q4 13 20 27q9 7 19 0q33 -22 63 -22q77 0 77 157v150l-67 -29q-6 -3 -17 -3q-50 0 -106.5 58t-56.5 144q0 97 66 160q31 29 72 46t76 17h198z" />
    <glyph glyph-name="periodcentered" unicode="&#xb7;" horiz-adv-x="226" 
d="M113 174q-24 0 -40 16t-16 43q0 24 16 40.5t40 16.5q25 0 41 -16.5t16 -40.5q0 -27 -16 -43t-41 -16z" />
    <glyph glyph-name="cedilla" unicode="&#xb8;" 
d="M246 0l-22 -27q-10 -13 -8.5 -21t13.5 -20q39 -39 39 -69q0 -31 -30.5 -58t-83.5 -43l-12 26q60 26 60 60q0 16 -23 39q-19 18 -22 30.5t11 31.5l38 51h40z" />
    <glyph glyph-name="onesuperior" horiz-adv-x="341" 
d="M273 402h-196v23q42 3 54 13t12 46v178q0 28 -6 35.5t-32 8.5l-29 2v22q69 9 132 30v-276q0 -35 11.5 -44.5t53.5 -14.5v-23z" />
    <glyph glyph-name="ordmasculine" unicode="&#xba;" horiz-adv-x="334" 
d="M167 545q60 0 99.5 -39t39.5 -95q-1 -65 -43 -103.5t-95 -38.5q-64 0 -103 40.5t-38 93.5q0 67 44.5 104.5t95.5 37.5zM160 518q-25 0 -44 -26t-20 -73q0 -54 22 -88t54 -34q29 0 46.5 24t18.5 75q0 54 -21 88t-56 34z" />
    <glyph glyph-name="guillemotright" unicode="&#xbb;" horiz-adv-x="445" 
d="M49 390l23 15q90 -113 158 -183q-74 -76 -158 -183l-23 14l94 169zM215 390l22 15q98 -123 158 -183q-65 -65 -158 -183l-22 14l93 169z" />
    <glyph glyph-name="onequarter" unicode="&#xbc;" horiz-adv-x="762" 
d="M276 277h-196v23q42 3 54 13t12 46v178q0 28 -6 35.5t-32 8.5l-29 2v23q61 7 132 30v-277q0 -35 11.5 -44.5t53.5 -14.5v-23zM603 632l-406 -659l-31 24l404 658zM687 99h-59v-29q0 -29 10 -37t45 -10v-23h-181v23q42 3 53.5 10.5t11.5 36.5v29h-162v23q112 149 184 237
h39v-223h59v-37zM567 136v149h-3q-54 -70 -108 -149h111z" />
    <glyph glyph-name="onehalf" unicode="&#xbd;" horiz-adv-x="762" 
d="M269 277h-197v23q42 3 54 13t12 46v178q0 28 -6 35.5t-31 8.5l-30 2v23q62 7 133 30v-277q0 -35 11.5 -44.5t53.5 -14.5v-23zM589 632l-406 -659l-31 24l404 658zM682 96l22 -7q-16 -52 -24 -89h-243v22q89 72 121 108q51 58 51 105q0 36 -19 54.5t-48 18.5
q-44 0 -85 -55l-18 18l33 43q36 45 97 45q45 0 77 -29t32 -78q0 -35 -23 -67t-82 -84l-52 -47v-2h91q29 0 42 8t28 36z" />
    <glyph glyph-name="threequarters" unicode="&#xbe;" horiz-adv-x="762" 
d="M606 632l-406 -659l-31 24l404 658zM681 99h-59v-29q0 -29 10 -37t45 -10v-23h-181v23q42 3 53.5 10.5t11.5 36.5v29h-162v23q112 149 184 237h39v-223h59v-37zM561 136v149h-3q-54 -70 -108 -149h111zM233 489v-2q40 -7 63.5 -29t23.5 -54q0 -42 -34.5 -75t-71.5 -46.5
t-62 -13.5q-40 0 -68 21q-16 13 -11 29q4 13 18 23q10 8 20 -1q46 -33 76 -33q29 0 47 18.5t18 56.5q0 33 -22.5 50t-54.5 17q-20 0 -41 -7l-7 25q49 16 74.5 34t25.5 44q0 20 -14 33t-39 13q-41 0 -75 -50l-16 16l29 41q35 37 87 37q42 0 68.5 -22.5t26.5 -54.5
q0 -27 -19 -41q-16 -15 -42 -29z" />
    <glyph glyph-name="questiondown" unicode="&#xbf;" horiz-adv-x="379" 
d="M191 447q23 0 38.5 -16t15.5 -40q0 -25 -15.5 -41t-38.5 -16q-24 0 -39.5 16t-15.5 41t15.5 40.5t39.5 15.5zM159 220l18 23q36 -13 73.5 -51t37.5 -79q0 -26 -18.5 -51.5t-65.5 -60.5q-2 -2 -14.5 -11t-17.5 -12l-15 -13l-16 -15l-13 -14l-12 -16l-7 -14l-3 -17
q0 -53 59 -53q28 0 53.5 13t41 26.5t19.5 13.5q12 0 26.5 -13.5t14.5 -30.5t-21 -36q-21 -18 -48.5 -28t-44.5 -10q-62 0 -111 48.5t-49 110.5q0 49 48 89q6 5 30 23t39 30.5t29 32t14 36.5q0 23 -11 40t-36 39z" />
    <glyph glyph-name="Agrave" unicode="&#xc0;" horiz-adv-x="691" 
d="M673 0h-245v28q47 6 58 16t1 39l-55 154h-213q-31 -88 -44 -129q-16 -47 -5.5 -61t67.5 -19v-28h-217v28q49 7 68 23t44 80l207 525l31 9l193 -536q24 -64 42 -80t68 -21v-28zM418 280l-88 255h-2l-94 -255h184zM407 709l-14 -25l-186 64l-2 7q3 12 19 33t25 24z" />
    <glyph glyph-name="Aacute" unicode="&#xc1;" horiz-adv-x="691" 
d="M673 0h-245v28q47 6 58 16t1 39l-55 154h-213q-31 -88 -44 -129q-16 -47 -5.5 -61t67.5 -19v-28h-217v28q49 7 68 23t44 80l207 525l31 9l193 -536q24 -64 42 -80t68 -21v-28zM418 280l-88 255h-2l-94 -255h184zM504 756l-2 -8l-185 -64l-13 25l157 102q9 -1 25 -22.5
t18 -32.5z" />
    <glyph glyph-name="Acircumflex" unicode="&#xc2;" horiz-adv-x="691" 
d="M673 0h-245v28q47 6 58 16t1 39l-55 154h-213q-31 -88 -44 -129q-16 -47 -5.5 -61t67.5 -19v-28h-217v28q49 7 68 23t44 80l207 525l31 9l193 -536q24 -64 42 -80t68 -21v-28zM418 280l-88 255h-2l-94 -255h184zM493 709l-16 -25q-50 21 -121 62q-79 -45 -120 -62l-16 25
q90 69 126 107h22q39 -41 125 -107z" />
    <glyph glyph-name="Atilde" unicode="&#xc3;" horiz-adv-x="691" 
d="M673 0h-245v28q47 6 58 16t1 39l-55 154h-213q-31 -88 -44 -129q-16 -47 -5.5 -61t67.5 -19v-28h-217v28q49 7 68 23t44 80l207 525l31 9l193 -536q24 -64 42 -80t68 -21v-28zM418 280l-88 255h-2l-94 -255h184zM304 788q21 0 62 -19q34 -16 55 -16q25 0 45 43l25 -14
q-27 -85 -82 -85q-23 0 -70 22q-28 14 -44 14q-25 0 -47 -44l-24 17q31 82 80 82z" />
    <glyph glyph-name="Adieresis" unicode="&#xc4;" horiz-adv-x="691" 
d="M673 0h-245v28q47 6 58 16t1 39l-55 154h-213q-31 -88 -44 -129q-16 -47 -5.5 -61t67.5 -19v-28h-217v28q49 7 68 23t44 80l207 525l31 9l193 -536q24 -64 42 -80t68 -21v-28zM418 280l-88 255h-2l-94 -255h184zM448 794q20 0 34 -14.5t14 -35.5q0 -20 -14 -34t-34 -14
q-19 0 -33 14.5t-14 33.5q0 21 14 35.5t33 14.5zM258 793q20 0 33.5 -14t13.5 -35q0 -20 -13.5 -34t-33.5 -14t-34 14t-14 34q0 21 14 35t34 14z" />
    <glyph glyph-name="Aring" unicode="&#xc5;" horiz-adv-x="691" 
d="M673 0h-245v28q47 6 58 16t1 39l-55 154h-213q-31 -88 -44 -129q-16 -47 -5.5 -61t67.5 -19v-28h-217v28q49 7 68 23t44 80l207 525l31 9l193 -536q24 -64 42 -80t68 -21v-28zM418 280l-88 255h-2l-94 -255h184zM354 855q35 0 62 -23t27 -60q0 -38 -27 -62t-62 -24
t-61.5 24t-26.5 62q0 37 26.5 60t61.5 23zM354 824q-19 0 -31.5 -14.5t-12.5 -37.5q0 -24 12.5 -39.5t31.5 -15.5q20 0 32 15.5t12 39.5q0 23 -12 37.5t-32 14.5z" />
    <glyph glyph-name="AE" unicode="&#xc6;" horiz-adv-x="869" 
d="M819 165l28 -7q-22 -112 -35 -158h-473v28q64 4 79 21.5t15 84.5v163h-177q-65 -127 -95 -195q-19 -39 -9 -53.5t66 -21.5v-27h-229v27q49 7 69.5 21t49.5 64q82 145 239 450q17 31 12 41t-43 15l-41 5v27h513q0 -44 10 -142l-30 -4q-15 60 -32 82q-13 17 -34 23t-71 6
h-83q-22 0 -27 -5t-5 -27v-248h90q66 0 82.5 12.5t26.5 64.5h30v-195h-30q-11 55 -27 67t-82 12l-90 1v-166q0 -68 24 -84q22 -12 102 -12q55 0 83 7t45 27q25 30 49 96zM433 336v274q-12 0 -28 -20l-131 -254h159z" />
    <glyph glyph-name="Ccedilla" unicode="&#xc7;" horiz-adv-x="661" 
d="M613 178l29 -11q-29 -102 -54 -156q-2 0 -27 -5.5t-43 -8.5t-46 -6.5t-50 -3.5l-11 -14q-9 -13 -7.5 -21t13.5 -21q38 -39 38 -68q0 -30 -31 -57.5t-83 -44.5l-13 28q59 26 61 60q0 15 -23 38q-19 19 -21.5 31t10.5 31l27 37q-68 2 -125 22t-95 52.5t-65 74.5t-39 87
t-12 92q0 155 106.5 253t272.5 98q30 0 61 -3.5t48 -7t42.5 -9.5t26.5 -6q14 -102 20 -155l-30 -5q-23 81 -67.5 115t-128.5 34q-112 0 -180 -83t-68 -209q0 -137 70 -225t186 -88q75 0 120.5 36.5t87.5 118.5z" />
    <glyph glyph-name="Egrave" unicode="&#xc8;" horiz-adv-x="568" 
d="M516 162l30 -4q-18 -100 -35 -158h-482v28q68 5 83.5 20t15.5 76v398q0 66 -13 80.5t-73 19.5v28h446q0 -8 8 -144l-29 -5q-11 50 -32 86q-11 16 -35 22t-78 6h-76q-23 0 -28 -4.5t-5 -27.5v-227h94q66 0 82 11.5t26 63.5h29v-192h-29q-10 54 -26 66t-81 12h-95v-189
q0 -64 24 -81q21 -13 104 -13q57 0 83 7t43 27q30 35 49 94zM349 709l-13 -25l-187 64l-1 7q2 11 18 32.5t25 24.5z" />
    <glyph glyph-name="Eacute" unicode="&#xc9;" horiz-adv-x="568" 
d="M516 162l30 -4q-18 -100 -35 -158h-482v28q68 5 83.5 20t15.5 76v398q0 66 -13 80.5t-73 19.5v28h446q0 -8 8 -144l-29 -5q-11 50 -32 86q-11 16 -35 22t-78 6h-76q-23 0 -28 -4.5t-5 -27.5v-227h94q66 0 82 11.5t26 63.5h29v-192h-29q-10 54 -26 66t-81 12h-95v-189
q0 -64 24 -81q21 -13 104 -13q57 0 83 7t43 27q30 35 49 94zM431 756l-2 -8l-185 -64l-13 25l157 102q9 -1 25 -22.5t18 -32.5z" />
    <glyph glyph-name="Ecircumflex" unicode="&#xca;" horiz-adv-x="568" 
d="M516 162l30 -4q-18 -100 -35 -158h-482v28q68 5 83.5 20t15.5 76v398q0 66 -13 80.5t-73 19.5v28h446q0 -8 8 -144l-29 -5q-11 50 -32 86q-11 16 -35 22t-78 6h-76q-23 0 -28 -4.5t-5 -27.5v-227h94q66 0 82 11.5t26 63.5h29v-192h-29q-10 54 -26 66t-81 12h-95v-189
q0 -64 24 -81q21 -13 104 -13q57 0 83 7t43 27q30 35 49 94zM424 709l-16 -25q-57 24 -121 62q-79 -45 -120 -62l-16 25q86 66 126 107h21q36 -38 126 -107z" />
    <glyph glyph-name="Edieresis" unicode="&#xcb;" horiz-adv-x="568" 
d="M516 162l30 -4q-18 -100 -35 -158h-482v28q68 5 83.5 20t15.5 76v398q0 66 -13 80.5t-73 19.5v28h446q0 -8 8 -144l-29 -5q-11 50 -32 86q-11 16 -35 22t-78 6h-76q-23 0 -28 -4.5t-5 -27.5v-227h94q66 0 82 11.5t26 63.5h29v-192h-29q-10 54 -26 66t-81 12h-95v-189
q0 -64 24 -81q21 -13 104 -13q57 0 83 7t43 27q30 35 49 94zM385 797q20 0 34 -14t14 -35q0 -20 -14 -34.5t-34 -14.5q-19 0 -33 14.5t-14 34.5q0 21 14 35t33 14zM195 797q20 0 33.5 -14.5t13.5 -35.5q0 -20 -13.5 -34t-33.5 -14q-19 0 -33.5 14.5t-14.5 33.5q0 21 14 35.5
t34 14.5z" />
    <glyph glyph-name="Igrave" unicode="&#xcc;" horiz-adv-x="341" 
d="M303 0h-265v28q62 5 76 19.5t14 77.5v400q0 63 -14 77.5t-76 19.5v28h265v-28q-62 -5 -76 -19.5t-14 -77.5v-400q0 -64 14 -78t76 -19v-28zM236 709l-13 -25l-187 64l-2 7q3 12 19 33t25 24z" />
    <glyph glyph-name="Iacute" unicode="&#xcd;" horiz-adv-x="341" 
d="M303 0h-265v28q62 5 76 19.5t14 77.5v400q0 63 -14 77.5t-76 19.5v28h265v-28q-62 -5 -76 -19.5t-14 -77.5v-400q0 -64 14 -78t76 -19v-28zM312 756l-2 -8l-185 -64l-12 25l157 102q8 -1 24 -22.5t18 -32.5z" />
    <glyph glyph-name="Icircumflex" unicode="&#xce;" horiz-adv-x="341" 
d="M303 0h-265v28q62 5 76 19.5t14 77.5v400q0 63 -14 77.5t-76 19.5v28h265v-28q-62 -5 -76 -19.5t-14 -77.5v-400q0 -64 14 -78t76 -19v-28zM307 709l-16 -25q-57 24 -121 62q-76 -43 -120 -62l-16 25q86 66 126 107h21q36 -38 126 -107z" />
    <glyph glyph-name="Idieresis" unicode="&#xcf;" horiz-adv-x="341" 
d="M303 0h-265v28q62 5 76 19.5t14 77.5v400q0 63 -14 77.5t-76 19.5v28h265v-28q-62 -5 -76 -19.5t-14 -77.5v-400q0 -64 14 -78t76 -19v-28zM266 794q20 0 33.5 -14t13.5 -35q0 -20 -13.5 -34t-33.5 -14t-34 14.5t-14 33.5q0 21 14 35t34 14zM75 794q20 0 34 -14t14 -36
q0 -19 -14 -33.5t-34 -14.5q-19 0 -33 14.5t-14 33.5q0 22 13.5 36t33.5 14z" />
    <glyph glyph-name="Eth" unicode="&#xd0;" horiz-adv-x="737" 
d="M54 650h275q188 0 277 -86q86 -81 86 -214q0 -174 -125 -267q-110 -83 -292 -83h-230v28q65 5 79.5 21.5t14.5 87.5v183h-102v41h102v152q0 51 -6 71t-21.5 27.5t-57.5 10.5v28zM224 320v-188q0 -53 19 -74t78 -21q133 0 202 84.5t69 213.5q0 170 -115 242
q-62 40 -162 40q-60 0 -78 -10q-13 -7 -13 -43v-203h158v-41h-158z" />
    <glyph glyph-name="Ntilde" unicode="&#xd1;" horiz-adv-x="743" 
d="M719 650v-28q-43 -2 -62 -15t-22 -45q-6 -45 -6 -168v-403h-31l-426 524h-2v-251q0 -111 6 -169q4 -37 24 -50.5t72 -16.5v-28h-237v28q45 2 64.5 15.5t23.5 49.5q6 62 6 171v220q0 53 -3 67.5t-17 33.5q-25 32 -89 37v28h148l417 -502h3v246q0 101 -7 166
q-4 33 -24.5 46t-73.5 16v28h236zM324 788q21 0 62 -19q34 -16 55 -16q26 0 45 43l25 -14q-26 -85 -82 -85q-23 0 -69 22q-30 13 -44 13q-25 0 -48 -43l-24 17q32 82 80 82z" />
    <glyph glyph-name="Ograve" unicode="&#xd2;" horiz-adv-x="747" 
d="M380 665q132 0 227.5 -93t95.5 -239q0 -158 -96 -253t-238 -95q-137 0 -231 95t-94 238q0 142 92.5 244.5t243.5 102.5zM360 629q-89 0 -151.5 -74.5t-62.5 -208.5q0 -141 69 -233t175 -92q89 0 150 74t61 211q0 152 -69 237.5t-172 85.5zM445 718l-13 -26l-187 64l-2 8
q3 12 19 33t25 24z" />
    <glyph glyph-name="Oacute" unicode="&#xd3;" horiz-adv-x="747" 
d="M380 665q132 0 227.5 -93t95.5 -239q0 -158 -96 -253t-238 -95q-137 0 -231 95t-94 238q0 142 92.5 244.5t243.5 102.5zM360 629q-89 0 -151.5 -74.5t-62.5 -208.5q0 -141 69 -233t175 -92q89 0 150 74t61 211q0 152 -69 237.5t-172 85.5zM503 763l-2 -8l-185 -64l-13 25
l157 102q9 -1 25 -22.5t18 -32.5z" />
    <glyph glyph-name="Ocircumflex" unicode="&#xd4;" horiz-adv-x="747" 
d="M380 665q132 0 227.5 -93t95.5 -239q0 -158 -96 -253t-238 -95q-137 0 -231 95t-94 238q0 142 92.5 244.5t243.5 102.5zM360 629q-89 0 -151.5 -74.5t-62.5 -208.5q0 -141 69 -233t175 -92q89 0 150 74t61 211q0 152 -69 237.5t-172 85.5zM509 716l-16 -25
q-51 24 -121 62q-90 -49 -120 -62l-16 25q90 69 126 108h22q39 -42 125 -108z" />
    <glyph glyph-name="Otilde" unicode="&#xd5;" horiz-adv-x="747" 
d="M380 665q132 0 227.5 -93t95.5 -239q0 -158 -96 -253t-238 -95q-137 0 -231 95t-94 238q0 142 92.5 244.5t243.5 102.5zM360 629q-89 0 -151.5 -74.5t-62.5 -208.5q0 -141 69 -233t175 -92q89 0 150 74t61 211q0 152 -69 237.5t-172 85.5zM322 797q21 0 62 -19
q34 -16 54 -16q27 0 46 43l25 -14q-27 -85 -82 -85q-23 0 -70 22q-32 14 -44 14q-25 0 -47 -44l-25 17q33 82 81 82z" />
    <glyph glyph-name="Odieresis" unicode="&#xd6;" horiz-adv-x="747" 
d="M380 665q132 0 227.5 -93t95.5 -239q0 -158 -96 -253t-238 -95q-137 0 -231 95t-94 238q0 142 92.5 244.5t243.5 102.5zM360 629q-89 0 -151.5 -74.5t-62.5 -208.5q0 -141 69 -233t175 -92q89 0 150 74t61 211q0 152 -69 237.5t-172 85.5zM468 799q20 0 34 -14.5
t14 -35.5q0 -20 -14 -34t-34 -14q-19 0 -33 14.5t-14 33.5q0 21 14 35.5t33 14.5zM278 798q20 0 33.5 -14t13.5 -35q0 -20 -13.5 -34t-33.5 -14t-34 14.5t-14 33.5q0 21 14 35t34 14z" />
    <glyph glyph-name="multiply" unicode="&#xd7;" horiz-adv-x="580" 
d="M522 47l-37 -37l-195 199l-195 -199l-35 37l193 200l-193 198l35 38l195 -199l195 200l37 -37l-195 -200z" />
    <glyph glyph-name="Oslash" unicode="&#xd8;" horiz-adv-x="749" 
d="M633 674l-50 -75q58 -47 92.5 -115t34.5 -149q0 -157 -96.5 -253.5t-240.5 -96.5q-95 0 -172 50l-57 -80l-26 24l53 77q-121 101 -121 263q0 140 94.5 243t245.5 103q91 0 162 -46l51 75zM216 123l301 443q-59 63 -150 63t-154 -75t-63 -210q0 -134 66 -221zM540 536
l-300 -444q56 -71 150 -71q108 0 164 80t56 204q0 135 -70 231z" />
    <glyph glyph-name="Ugrave" unicode="&#xd9;" horiz-adv-x="736" 
d="M716 650v-28q-45 -3 -64.5 -16t-23.5 -43q-5 -45 -5 -162v-83q0 -184 -76 -264q-66 -69 -179 -69q-98 0 -160 48q-88 67 -88 238v250q0 66 -13.5 81t-73.5 20v28h259v-28q-60 -4 -73.5 -19t-13.5 -82v-228q0 -122 48 -187.5t140 -65.5q189 0 189 285v76q0 111 -7 165
q-4 29 -24 40.5t-73 15.5v28h238zM439 709l-14 -25l-186 64l-2 7q3 12 19 33t25 24z" />
    <glyph glyph-name="Uacute" unicode="&#xda;" horiz-adv-x="736" 
d="M716 650v-28q-45 -3 -64.5 -16t-23.5 -43q-5 -45 -5 -162v-83q0 -184 -76 -264q-66 -69 -179 -69q-98 0 -160 48q-88 67 -88 238v250q0 66 -13.5 81t-73.5 20v28h259v-28q-60 -4 -73.5 -19t-13.5 -82v-228q0 -122 48 -187.5t140 -65.5q189 0 189 285v76q0 111 -7 165
q-4 29 -24 40.5t-73 15.5v28h238zM519 756l-2 -8l-186 -64l-12 25l157 102q9 -1 25 -22.5t18 -32.5z" />
    <glyph glyph-name="Ucircumflex" unicode="&#xdb;" horiz-adv-x="736" 
d="M716 650v-28q-45 -3 -64.5 -16t-23.5 -43q-5 -45 -5 -162v-83q0 -184 -76 -264q-66 -69 -179 -69q-98 0 -160 48q-88 67 -88 238v250q0 66 -13.5 81t-73.5 20v28h259v-28q-60 -4 -73.5 -19t-13.5 -82v-228q0 -122 48 -187.5t140 -65.5q189 0 189 285v76q0 111 -7 165
q-4 29 -24 40.5t-73 15.5v28h238zM517 709l-16 -25q-50 21 -121 62q-79 -45 -120 -62l-16 25q90 69 126 107h21q36 -38 126 -107z" />
    <glyph glyph-name="Udieresis" unicode="&#xdc;" horiz-adv-x="736" 
d="M716 650v-28q-45 -3 -64.5 -16t-23.5 -43q-5 -45 -5 -162v-83q0 -184 -76 -264q-66 -69 -179 -69q-98 0 -160 48q-88 67 -88 238v250q0 66 -13.5 81t-73.5 20v28h259v-28q-60 -4 -73.5 -19t-13.5 -82v-228q0 -122 48 -187.5t140 -65.5q189 0 189 285v76q0 111 -7 165
q-4 29 -24 40.5t-73 15.5v28h238zM472 794q20 0 33.5 -14t13.5 -35q0 -20 -13.5 -34t-33.5 -14t-34 14.5t-14 33.5q0 21 14 35t34 14zM281 794q20 0 34 -14t14 -36q0 -19 -14 -33.5t-34 -14.5q-19 0 -33 14.5t-14 33.5q0 22 13.5 36t33.5 14z" />
    <glyph glyph-name="Yacute" unicode="&#xdd;" horiz-adv-x="634" 
d="M620 650v-28q-51 -6 -70 -19t-49 -60q-66 -106 -127 -219q-16 -32 -16 -63v-136q0 -63 15.5 -77.5t84.5 -19.5v-28h-283v28q67 5 82.5 19.5t15.5 77.5v133q0 22 -21 59l-126 220q-31 52 -49 66.5t-62 18.5v28h239v-28q-50 -6 -58.5 -18t8.5 -36q20 -39 134 -237
q87 155 119 225q18 37 9 48.5t-67 17.5v28h221zM470 756l-1 -8l-186 -64l-12 25l157 102q9 -1 24.5 -22.5t17.5 -32.5z" />
    <glyph glyph-name="Thorn" unicode="&#xde;" horiz-adv-x="549" 
d="M288 650v-28q-31 -3 -44 -5.5t-23 -15.5t-11.5 -32.5t-1.5 -62.5q60 2 88 2q214 0 214 -171q0 -88 -67 -136.5t-164 -48.5l-71 17v-42q0 -64 15 -79t79 -20v-28h-265v28q60 5 73.5 20.5t13.5 83.5v386q0 69 -12.5 84t-69.5 20v28h246zM208 433v-229q29 -12 68 -12
q61 0 100 37t39 105q0 69 -37.5 104.5t-104.5 35.5q-40 0 -54 -9q-11 -6 -11 -32z" />
    <glyph glyph-name="germandbls" unicode="&#xdf;" horiz-adv-x="545" 
d="M103 437v12q0 44 11 86q21 71 83 123q58 48 128 54q69 -2 112.5 -41t44.5 -109q0 -24 -11 -42q-103 -78 -103 -136q0 -18 12.5 -37t21.5 -27l35 -32q24 -21 38.5 -36t28.5 -42t14 -54q0 -69 -62.5 -119t-121.5 -50q-34 0 -55 13q-25 14 -20 33q4 15 18 27q11 8 21 1
q37 -29 74 -29q26 0 48.5 20.5t22.5 61.5q0 31 -17 56t-51 54q-82 70 -82 123q0 26 16 51.5t54 65.5q36 35 43 45q7 11 7 33q0 51 -34 89.5t-85 38.5q-36 0 -59.5 -21t-34.5 -62t-14.5 -83.5t-3.5 -103.5v-296q0 -47 8.5 -60t44.5 -17v-27h-204v27q48 4 60 16.5t12 58.5v292
h-71l-4 10l28 33h47z" />
    <glyph glyph-name="agrave" unicode="&#xe0;" horiz-adv-x="439" 
d="M433 39l-85 -51q-26 0 -47 19q-16 17 -24 45q-5 -3 -24 -16.5t-27 -18.5t-23 -13.5t-25 -12t-19 -3.5q-52 0 -86 36.5t-34 85.5q0 71 81 99q128 43 155 65v18q0 53 -23 83t-61 30q-28 0 -45 -20q-17 -17 -30 -66q-6 -23 -29 -23q-14 0 -29 13.5t-15 29.5t32 40
q79 56 150 70q49 0 82 -27q45 -37 45 -122v-186q0 -60 35 -60q18 0 36 11zM275 84v156q-12 -6 -49 -23t-41 -19q-31 -14 -46 -30.5t-15 -42.5q0 -36 22.5 -56.5t48.5 -20.5q44 2 80 36zM252 504l-27 -13l-117 160l3 8q6 4 36 9t41 4q11 -25 34 -88z" />
    <glyph glyph-name="aacute" unicode="&#xe1;" horiz-adv-x="439" 
d="M433 39l-85 -51q-26 0 -47 19q-16 17 -24 45q-5 -3 -24 -16.5t-27 -18.5t-23 -13.5t-25 -12t-19 -3.5q-52 0 -86 36.5t-34 85.5q0 71 81 99q128 43 155 65v18q0 53 -23 83t-61 30q-28 0 -45 -20q-17 -17 -30 -66q-6 -23 -29 -23q-14 0 -29 13.5t-15 29.5t32 40
q79 56 150 70q49 0 82 -27q45 -37 45 -122v-186q0 -60 35 -60q18 0 36 11zM275 84v156q-12 -6 -49 -23t-41 -19q-31 -14 -46 -30.5t-15 -42.5q0 -36 22.5 -56.5t48.5 -20.5q44 2 80 36zM203 493l-26 13q17 38 67 159q8 3 40.5 7t40.5 2l3 -9z" />
    <glyph glyph-name="acircumflex" unicode="&#xe2;" horiz-adv-x="439" 
d="M433 39l-85 -51q-26 0 -47 19q-16 17 -24 45q-5 -3 -24 -16.5t-27 -18.5t-23 -13.5t-25 -12t-19 -3.5q-52 0 -86 36.5t-34 85.5q0 71 81 99q128 43 155 65v18q0 53 -23 83t-61 30q-28 0 -45 -20q-17 -17 -30 -66q-6 -23 -29 -23q-14 0 -29 13.5t-15 29.5t32 40
q79 56 150 70q49 0 82 -27q45 -37 45 -122v-186q0 -60 35 -60q18 0 36 11zM275 84v156q-12 -6 -49 -23t-41 -19q-31 -14 -46 -30.5t-15 -42.5q0 -36 22.5 -56.5t48.5 -20.5q44 2 80 36zM320 508l-24 -17q-44 42 -88 97q-43 -55 -88 -97l-24 17q56 80 100 163h25
q47 -89 99 -163z" />
    <glyph glyph-name="atilde" unicode="&#xe3;" horiz-adv-x="439" 
d="M433 39l-85 -51q-26 0 -47 19q-16 17 -24 45q-5 -3 -24 -16.5t-27 -18.5t-23 -13.5t-25 -12t-19 -3.5q-52 0 -86 36.5t-34 85.5q0 71 81 99q128 43 155 65v18q0 53 -23 83t-61 30q-28 0 -45 -20q-17 -17 -30 -66q-6 -23 -29 -23q-14 0 -29 13.5t-15 29.5t32 40
q79 56 150 70q49 0 82 -27q45 -37 45 -122v-186q0 -60 35 -60q18 0 36 11zM275 84v156q-12 -6 -49 -23t-41 -19q-31 -14 -46 -30.5t-15 -42.5q0 -36 22.5 -56.5t48.5 -20.5q44 2 80 36zM108 521l-26 16q29 90 80 90q21 0 58 -19q38 -19 53 -19q22 0 44 45l25 -14
q-28 -90 -79 -90q-25 0 -66 24q-27 15 -46 15q-23 0 -43 -48z" />
    <glyph glyph-name="adieresis" unicode="&#xe4;" horiz-adv-x="439" 
d="M433 39l-85 -51q-26 0 -47 19q-16 17 -24 45q-5 -3 -24 -16.5t-27 -18.5t-23 -13.5t-25 -12t-19 -3.5q-52 0 -86 36.5t-34 85.5q0 71 81 99q128 43 155 65v18q0 53 -23 83t-61 30q-28 0 -45 -20q-17 -17 -30 -66q-6 -23 -29 -23q-14 0 -29 13.5t-15 29.5t32 40
q79 56 150 70q49 0 82 -27q45 -37 45 -122v-186q0 -60 35 -60q18 0 36 11zM275 84v156q-12 -6 -49 -23t-41 -19q-31 -14 -46 -30.5t-15 -42.5q0 -36 22.5 -56.5t48.5 -20.5q44 2 80 36zM125 538q-19 0 -33.5 14.5t-14.5 33.5q0 21 14.5 35.5t34.5 14.5q19 0 32.5 -14.5
t13.5 -35.5q0 -19 -13.5 -33.5t-33.5 -14.5zM293 538q-19 0 -33 14.5t-14 33.5q0 21 14 35.5t34 14.5t33.5 -14.5t13.5 -35.5q0 -19 -14 -33.5t-34 -14.5z" />
    <glyph glyph-name="aring" unicode="&#xe5;" horiz-adv-x="439" 
d="M433 39l-85 -51q-26 0 -47 19q-16 17 -24 45q-5 -3 -24 -16.5t-27 -18.5t-23 -13.5t-25 -12t-19 -3.5q-52 0 -86 36.5t-34 85.5q0 71 81 99q128 43 155 65v18q0 53 -23 83t-61 30q-28 0 -45 -20q-17 -17 -30 -66q-6 -23 -29 -23q-14 0 -29 13.5t-15 29.5t32 40
q79 56 150 70q49 0 82 -27q45 -37 45 -122v-186q0 -60 35 -60q18 0 36 11zM275 84v156q-12 -6 -49 -23t-41 -19q-31 -14 -46 -30.5t-15 -42.5q0 -36 22.5 -56.5t48.5 -20.5q44 2 80 36zM210 499q-35 0 -62 24t-27 62q0 37 27 60t63 23q34 0 61 -23t27 -60q0 -38 -27 -62
t-62 -24zM211 530q20 0 32 15.5t12 39.5q0 23 -12 37.5t-33 14.5q-19 0 -31.5 -15t-12.5 -37q0 -23 13 -39t32 -16z" />
    <glyph glyph-name="ae" unicode="&#xe6;" horiz-adv-x="671" 
d="M624 105l17 -20q-39 -52 -85 -74.5t-78 -22.5q-108 0 -161 89l-35 -27q-81 -62 -121 -62q-52 0 -86.5 37t-34.5 83q0 72 79 100q138 48 165 67v23q0 47 -25.5 77t-62.5 30q-31 0 -47 -23q-13 -14 -28 -64q-6 -24 -27 -24q-13 0 -29.5 13.5t-16.5 28.5q0 22 31 43
q71 51 151 70q45 0 74 -21q28 -20 41 -54q64 74 147 76q63 0 108 -46.5t46 -105.5q0 -17 -5 -24.5t-18 -10.5q-44 -9 -265 -16q-1 -94 44.5 -143t110.5 -49q58 0 111 50zM469 412q-37 0 -68 -33t-38 -92q59 0 175 2q12 0 16.5 5t4.5 18q1 41 -23.5 70.5t-66.5 29.5zM198 51
q62 0 105 56q-20 43 -20 133q-26 -12 -98 -42q-32 -13 -46 -29t-14 -42q0 -35 22 -55.5t51 -20.5z" />
    <glyph glyph-name="ccedilla" unicode="&#xe7;" horiz-adv-x="421" 
d="M391 112l18 -22q-66 -81 -137 -98l-14 -18q-9 -13 -7 -20.5t14 -20.5q37 -36 37 -67q0 -30 -30 -57t-82 -44l-11 26q59 27 59 61q0 14 -22 38q-19 18 -22 29.5t10 30.5l30 38q-86 3 -141.5 62t-55.5 145q0 120 101 197q75 57 153 57q23 0 49.5 -7.5t39.5 -19.5
q16 -14 15 -30q0 -14 -12.5 -28.5t-23.5 -14.5q-7 0 -18 11q-45 41 -102 41q-47 0 -83.5 -40t-36.5 -119q0 -51 15 -89.5t39.5 -58.5t48.5 -29t47 -9q35 0 62 12t60 44z" />
    <glyph glyph-name="egrave" unicode="&#xe8;" horiz-adv-x="425" 
d="M379 106l16 -21q-42 -53 -87 -75t-76 -22q-89 0 -142 62t-53 151q0 103 66 175q65 73 147 73q61 0 105.5 -46t44.5 -106q0 -27 -23 -32q-58 -10 -261 -17q1 -95 45.5 -143.5t103.5 -48.5q61 0 114 50zM226 412q-36 0 -65 -32t-40 -91q82 0 169 3q24 0 24 20
q1 41 -23.5 70.5t-64.5 29.5zM265 504l-26 -13l-118 160l4 8q6 4 36 9t41 4q6 -15 63 -168z" />
    <glyph glyph-name="eacute" unicode="&#xe9;" horiz-adv-x="425" 
d="M379 106l16 -21q-42 -53 -87 -75t-76 -22q-89 0 -142 62t-53 151q0 103 66 175q65 73 147 73q61 0 105.5 -46t44.5 -106q0 -27 -23 -32q-58 -10 -261 -17q1 -95 45.5 -143.5t103.5 -48.5q61 0 114 50zM226 412q-36 0 -65 -32t-40 -91q82 0 169 3q24 0 24 20
q1 41 -23.5 70.5t-64.5 29.5zM218 493l-26 13q17 38 67 159q8 3 40.5 7t40.5 2l3 -9z" />
    <glyph glyph-name="ecircumflex" unicode="&#xea;" horiz-adv-x="425" 
d="M379 106l16 -21q-42 -53 -87 -75t-76 -22q-89 0 -142 62t-53 151q0 103 66 175q65 73 147 73q61 0 105.5 -46t44.5 -106q0 -27 -23 -32q-58 -10 -261 -17q1 -95 45.5 -143.5t103.5 -48.5q61 0 114 50zM226 412q-36 0 -65 -32t-40 -91q82 0 169 3q24 0 24 20
q1 41 -23.5 70.5t-64.5 29.5zM340 508l-24 -17q-41 37 -88 97q-51 -62 -88 -97l-25 17q56 77 101 163h25q47 -89 99 -163z" />
    <glyph glyph-name="edieresis" unicode="&#xeb;" horiz-adv-x="425" 
d="M379 106l16 -21q-42 -53 -87 -75t-76 -22q-89 0 -142 62t-53 151q0 103 66 175q65 73 147 73q61 0 105.5 -46t44.5 -106q0 -27 -23 -32q-58 -10 -261 -17q1 -95 45.5 -143.5t103.5 -48.5q61 0 114 50zM226 412q-36 0 -65 -32t-40 -91q82 0 169 3q24 0 24 20
q1 41 -23.5 70.5t-64.5 29.5zM140 538q-19 0 -33.5 14.5t-14.5 33.5q0 21 14.5 35.5t34.5 14.5q19 0 32.5 -14.5t13.5 -35.5q0 -19 -13.5 -33.5t-33.5 -14.5zM308 538q-19 0 -33 14.5t-14 33.5q0 21 14 35.5t34 14.5t33.5 -14.5t13.5 -35.5q0 -19 -14 -33.5t-34 -14.5z" />
    <glyph glyph-name="igrave" unicode="&#xec;" horiz-adv-x="268" 
d="M252 0h-219v26q48 5 59 18t11 64v200q0 50 -9.5 61.5t-53.5 18.5v24q77 12 142 39v-343q0 -52 11 -64.5t59 -17.5v-26zM169 504l-27 -13l-117 160l3 8q7 4 37 9t41 4l31 -83z" />
    <glyph glyph-name="iacute" unicode="&#xed;" horiz-adv-x="268" 
d="M252 0h-219v26q48 5 59 18t11 64v200q0 50 -9.5 61.5t-53.5 18.5v24q77 12 142 39v-343q0 -52 11 -64.5t59 -17.5v-26zM124 493l-26 13q17 38 67 159q8 3 40.5 7t40.5 2l3 -9z" />
    <glyph glyph-name="icircumflex" unicode="&#xee;" horiz-adv-x="268" 
d="M252 0h-219v26q48 5 59 18t11 64v200q0 50 -9.5 61.5t-53.5 18.5v24q77 12 142 39v-343q0 -52 11 -64.5t59 -17.5v-26zM244 508l-24 -17q-44 42 -88 97q-43 -55 -88 -97l-24 17q56 80 100 163h25q54 -99 99 -163z" />
    <glyph glyph-name="idieresis" unicode="&#xef;" horiz-adv-x="268" 
d="M252 0h-219v26q48 5 59 18t11 64v200q0 50 -9.5 61.5t-53.5 18.5v24q77 12 142 39v-343q0 -52 11 -64.5t59 -17.5v-26zM48 538q-19 0 -33.5 14.5t-14.5 33.5q0 21 14.5 35.5t34.5 14.5q19 0 32.5 -14.5t13.5 -35.5q0 -19 -13.5 -33.5t-33.5 -14.5zM216 538
q-19 0 -33 14.5t-14 33.5q0 21 14 35.5t34 14.5t33.5 -14.5t13.5 -35.5q0 -19 -14 -33.5t-34 -14.5z" />
    <glyph glyph-name="eth" unicode="&#xf0;" horiz-adv-x="505" 
d="M450 661l-114 -60q131 -138 131 -334q0 -136 -64 -207.5t-156 -71.5t-150.5 68t-58.5 153q0 76 36.5 133t85.5 82t99 25q52 0 96 -24q-18 82 -72 145l-145 -78l-16 31l135 73q-79 72 -173 86q-4 6 -2 16t8 14q120 -7 218 -87l126 67zM254 416q-55 0 -89 -49t-34 -130
q0 -96 36.5 -155.5t97.5 -59.5q111 0 114 213q1 66 -6 95t-24 47q-41 39 -95 39z" />
    <glyph glyph-name="ntilde" unicode="&#xf1;" horiz-adv-x="547" 
d="M523 0h-208v26q44 5 55 18t11 65v167q0 114 -91 114q-50 0 -109 -51v-235q0 -50 10 -61.5t55 -16.5v-26h-217v26q51 5 62 17t11 61v207q0 47 -9 58t-51 19v23q83 16 139 41v-80l67 47q47 30 83 30q60 0 94.5 -40t34.5 -112v-193q0 -50 9.5 -61.5t53.5 -16.5v-26zM167 521
l-26 16q29 90 80 90q21 0 58 -19q38 -19 53 -19q24 0 44 45l25 -14q-27 -90 -79 -90q-23 0 -66 24q-27 15 -46 15q-24 0 -43 -48z" />
    <glyph glyph-name="ograve" unicode="&#xf2;" horiz-adv-x="510" 
d="M256 449q92 0 154.5 -64.5t62.5 -158.5q0 -112 -67 -175t-150 -63q-98 0 -158.5 66.5t-60.5 154.5q0 59 21 106.5t54.5 75.5t70.5 43t73 15zM246 416q-49 0 -82.5 -47t-33.5 -128q0 -96 38 -158t99 -62q51 0 82 43.5t31 139.5q0 92 -35.5 152t-98.5 60zM295 504l-27 -13
l-117 160l3 8q6 4 36 9t41 4q11 -25 34 -88z" />
    <glyph glyph-name="oacute" unicode="&#xf3;" horiz-adv-x="510" 
d="M256 449q92 0 154.5 -64.5t62.5 -158.5q0 -112 -67 -175t-150 -63q-98 0 -158.5 66.5t-60.5 154.5q0 59 21 106.5t54.5 75.5t70.5 43t73 15zM246 416q-49 0 -82.5 -47t-33.5 -128q0 -96 38 -158t99 -62q51 0 82 43.5t31 139.5q0 92 -35.5 152t-98.5 60zM245 493l-26 13
q17 38 67 159q8 3 40.5 7t40.5 2l3 -9z" />
    <glyph glyph-name="ocircumflex" unicode="&#xf4;" horiz-adv-x="510" 
d="M256 449q92 0 154.5 -64.5t62.5 -158.5q0 -112 -67 -175t-150 -63q-98 0 -158.5 66.5t-60.5 154.5q0 59 21 106.5t54.5 75.5t70.5 43t73 15zM246 416q-49 0 -82.5 -47t-33.5 -128q0 -96 38 -158t99 -62q51 0 82 43.5t31 139.5q0 92 -35.5 152t-98.5 60zM367 508l-24 -17
q-41 37 -88 97q-43 -55 -88 -97l-24 17q56 80 100 163h25q47 -89 99 -163z" />
    <glyph glyph-name="otilde" unicode="&#xf5;" horiz-adv-x="510" 
d="M256 449q92 0 154.5 -64.5t62.5 -158.5q0 -112 -67 -175t-150 -63q-98 0 -158.5 66.5t-60.5 154.5q0 59 21 106.5t54.5 75.5t70.5 43t73 15zM246 416q-49 0 -82.5 -47t-33.5 -128q0 -96 38 -158t99 -62q51 0 82 43.5t31 139.5q0 92 -35.5 152t-98.5 60zM151 521l-26 16
q29 90 80 90q21 0 58 -19q38 -19 53 -19q24 0 44 45l25 -14q-27 -90 -79 -90q-23 0 -66 24q-27 15 -46 15q-24 0 -43 -48z" />
    <glyph glyph-name="odieresis" unicode="&#xf6;" horiz-adv-x="510" 
d="M256 449q92 0 154.5 -64.5t62.5 -158.5q0 -112 -67 -175t-150 -63q-98 0 -158.5 66.5t-60.5 154.5q0 59 21 106.5t54.5 75.5t70.5 43t73 15zM246 416q-49 0 -82.5 -47t-33.5 -128q0 -96 38 -158t99 -62q51 0 82 43.5t31 139.5q0 92 -35.5 152t-98.5 60zM171 538
q-19 0 -33.5 14.5t-14.5 33.5q0 21 14.5 35.5t34.5 14.5q19 0 32.5 -14.5t13.5 -35.5q0 -19 -13.5 -33.5t-33.5 -14.5zM339 538q-19 0 -33 14.5t-14 33.5q0 21 14 35.5t34 14.5t33.5 -14.5t13.5 -35.5q0 -19 -14 -33.5t-34 -14.5z" />
    <glyph glyph-name="divide" unicode="&#xf7;" horiz-adv-x="580" 
d="M292 354q-19 0 -34 14.5t-15 35.5q0 19 15 34t34 15q20 0 35 -14.5t15 -34.5q0 -21 -15 -35.5t-35 -14.5zM529 230h-477v49h477v-49zM291 154q19 0 34 -14.5t15 -34.5q0 -19 -15.5 -34t-33.5 -15q-21 0 -35.5 14.5t-14.5 34.5q0 21 14.5 35t35.5 14z" />
    <glyph glyph-name="oslash" unicode="&#xf8;" horiz-adv-x="513" 
d="M432 454l-36 -53q80 -66 80 -174q0 -111 -66.5 -175t-150.5 -64q-64 0 -115 31l-40 -55l-25 22l38 52q-38 32 -59 78t-21 94q0 59 21.5 106.5t55.5 75t72 42.5t74 15q59 0 109 -29l36 52zM157 100l180 272q-32 44 -88 44q-52 0 -87.5 -48.5t-35.5 -134.5q0 -80 31 -133z
M357 341l-179 -271q32 -49 90 -49q51 0 85 47.5t34 145.5q0 73 -30 127z" />
    <glyph glyph-name="ugrave" unicode="&#xf9;" horiz-adv-x="531" 
d="M518 49v-25q-55 -8 -147 -36l-6 6v71q-54 -40 -74 -52q-43 -25 -77 -25q-55 0 -89.5 36.5t-34.5 112.5v196q0 41 -9 51.5t-52 18.5v23q71 5 143 18q-3 -31 -3 -146v-134q0 -113 88 -113q59 0 108 48v233q0 42 -12 52.5t-66 18.5v23q97 6 157 18v-334q0 -37 8.5 -47
t37.5 -12zM293 504l-27 -13l-117 160l3 8q6 4 36 9t41 4q11 -25 34 -88z" />
    <glyph glyph-name="uacute" unicode="&#xfa;" horiz-adv-x="531" 
d="M518 49v-25q-55 -8 -147 -36l-6 6v71q-54 -40 -74 -52q-43 -25 -77 -25q-55 0 -89.5 36.5t-34.5 112.5v196q0 41 -9 51.5t-52 18.5v23q71 5 143 18q-3 -31 -3 -146v-134q0 -113 88 -113q59 0 108 48v233q0 42 -12 52.5t-66 18.5v23q97 6 157 18v-334q0 -37 8.5 -47
t37.5 -12zM252 493l-26 13q17 38 67 159q8 3 40.5 7t40.5 2l3 -9z" />
    <glyph glyph-name="ucircumflex" unicode="&#xfb;" horiz-adv-x="531" 
d="M518 49v-25q-55 -8 -147 -36l-6 6v71q-54 -40 -74 -52q-43 -25 -77 -25q-55 0 -89.5 36.5t-34.5 112.5v196q0 41 -9 51.5t-52 18.5v23q71 5 143 18q-3 -31 -3 -146v-134q0 -113 88 -113q59 0 108 48v233q0 42 -12 52.5t-66 18.5v23q97 6 157 18v-334q0 -37 8.5 -47
t37.5 -12zM374 508l-25 -17q-40 38 -87 97q-47 -58 -89 -97l-24 17q49 68 101 163h25q47 -89 99 -163z" />
    <glyph glyph-name="udieresis" unicode="&#xfc;" horiz-adv-x="531" 
d="M518 49v-25q-55 -8 -147 -36l-6 6v71q-54 -40 -74 -52q-43 -25 -77 -25q-55 0 -89.5 36.5t-34.5 112.5v196q0 41 -9 51.5t-52 18.5v23q71 5 143 18q-3 -31 -3 -146v-134q0 -113 88 -113q59 0 108 48v233q0 42 -12 52.5t-66 18.5v23q97 6 157 18v-334q0 -37 8.5 -47
t37.5 -12zM174 538q-19 0 -33.5 14.5t-14.5 33.5q0 21 14.5 35.5t34.5 14.5q19 0 32.5 -14.5t13.5 -35.5q0 -19 -13.5 -33.5t-33.5 -14.5zM342 538q-19 0 -33 14.5t-14 33.5q0 21 14 35.5t34 14.5t33.5 -14.5t13.5 -35.5q0 -19 -14 -33.5t-34 -14.5z" />
    <glyph glyph-name="yacute" unicode="&#xfd;" horiz-adv-x="459" 
d="M478 437v-25q-40 -6 -54.5 -18t-34.5 -55q-11 -23 -26 -60l-43 -107l-56 -134q-86 -205 -103 -271q-6 -24 -32 -24q-21 0 -39 15t-18 33q0 19 26 36q41 27 74 89q23 42 31 69q7 22 -1 45q-70 199 -115 306q-16 43 -31 56.5t-55 19.5v25h203v-25q-34 -6 -41 -16.5t3 -38.5
l91 -251q47 115 92 249q9 29 -0.5 40t-51.5 17v25h181zM245 493l-26 13q17 38 67 159q8 3 40.5 7t40.5 2l3 -9z" />
    <glyph glyph-name="thorn" unicode="&#xfe;" horiz-adv-x="514" 
d="M156 712v-328q63 35 110 57q18 8 36 8q79 0 126.5 -57.5t47.5 -131.5q1 -108 -71 -180.5t-179 -91.5q-42 3 -70 20v-141q0 -52 14.5 -65t74.5 -17v-27h-240v27q48 4 60 16.5t12 63.5v713q0 51 -10 61.5t-60 15.5v24q73 7 149 33zM156 351v-271q15 -17 43 -29t55 -12
q57 0 98 45t41 134q0 83 -39 127.5t-99 44.5q-43 0 -99 -39z" />
    <glyph glyph-name="ydieresis" unicode="&#xff;" horiz-adv-x="459" 
d="M478 437v-25q-40 -6 -54.5 -18t-34.5 -55q-11 -23 -26 -60l-43 -107l-56 -134q-86 -205 -103 -271q-6 -24 -32 -24q-21 0 -39 15t-18 33q0 19 26 36q41 27 74 89q23 42 31 69q7 22 -1 45q-70 199 -115 306q-16 43 -31 56.5t-55 19.5v25h203v-25q-34 -6 -41 -16.5t3 -38.5
l91 -251q47 115 92 249q9 29 -0.5 40t-51.5 17v25h181zM156 538q-19 0 -33 14.5t-14 33.5q0 21 14 35.5t34 14.5t33.5 -14.5t13.5 -35.5q0 -19 -14 -33.5t-34 -14.5zM325 538q-19 0 -33.5 14.5t-14.5 33.5q0 21 14.5 35.5t34.5 14.5t33.5 -14.5t13.5 -35.5q0 -19 -14 -33.5
t-34 -14.5z" />
    <glyph glyph-name="Amacron" unicode="&#x100;" horiz-adv-x="691" 
d="M673 0h-245v28q47 6 58 16t1 39l-55 154h-213q-31 -88 -44 -129q-16 -47 -5.5 -61t67.5 -19v-28h-217v28q49 7 68 23t44 80l207 525l31 9l193 -536q24 -64 42 -80t68 -21v-28zM418 280l-88 255h-2l-94 -255h184zM468 715h-224v52h224v-52z" />
    <glyph glyph-name="amacron" unicode="&#x101;" horiz-adv-x="439" 
d="M433 39l-85 -51q-26 0 -47 19q-16 17 -24 45q-5 -3 -24 -16.5t-27 -18.5t-23 -13.5t-25 -12t-19 -3.5q-52 0 -86 36.5t-34 85.5q0 71 81 99q128 43 155 65v18q0 53 -23 83t-61 30q-28 0 -45 -20q-17 -17 -30 -66q-6 -23 -29 -23q-14 0 -29 13.5t-15 29.5t32 40
q79 56 150 70q49 0 82 -27q45 -37 45 -122v-186q0 -60 35 -60q18 0 36 11zM275 84v156q-12 -6 -49 -23t-41 -19q-31 -14 -46 -30.5t-15 -42.5q0 -36 22.5 -56.5t48.5 -20.5q44 2 80 36zM316 548h-220v55h220v-55z" />
    <glyph glyph-name="Abreve" unicode="&#x102;" horiz-adv-x="691" 
d="M673 0h-245v28q47 6 58 16t1 39l-55 154h-213q-31 -88 -44 -129q-16 -47 -5.5 -61t67.5 -19v-28h-217v28q49 7 68 23t44 80l207 525l31 9l193 -536q24 -64 42 -80t68 -21v-28zM418 280l-88 255h-2l-94 -255h184zM442 813h30q-1 -58 -32.5 -88t-84.5 -30t-84.5 30
t-32.5 88h30q16 -61 87 -61t87 61z" />
    <glyph glyph-name="abreve" unicode="&#x103;" horiz-adv-x="439" 
d="M433 39l-85 -51q-26 0 -47 19q-16 17 -24 45q-5 -3 -24 -16.5t-27 -18.5t-23 -13.5t-25 -12t-19 -3.5q-52 0 -86 36.5t-34 85.5q0 71 81 99q128 43 155 65v18q0 53 -23 83t-61 30q-28 0 -45 -20q-17 -17 -30 -66q-6 -23 -29 -23q-14 0 -29 13.5t-15 29.5t32 40
q79 56 150 70q49 0 82 -27q45 -37 45 -122v-186q0 -60 35 -60q18 0 36 11zM275 84v156q-12 -6 -49 -23t-41 -19q-31 -14 -46 -30.5t-15 -42.5q0 -36 22.5 -56.5t48.5 -20.5q44 2 80 36zM287 648h30q0 -73 -31 -105t-81 -32q-49 0 -79.5 32t-30.5 105h30q11 -79 81 -79t81 79
z" />
    <glyph glyph-name="Aogonek" unicode="&#x104;" horiz-adv-x="691" 
d="M673 0h-169q-22 -19 -42.5 -58t-20.5 -66q0 -26 16 -40.5t42 -14.5q17 0 46 11l8 -25l-57 -34q-17 -10 -34 -10q-46 0 -67.5 24.5t-21.5 59.5q0 70 113 183q14 14 6 36q-6 19 -31 88l-30 83h-211q-26 -67 -45 -129q-16 -48 -5 -61.5t68 -19.5v-27h-218v27q49 7 68 24
t44 81l207 524l31 9l193 -536q24 -63 42.5 -80.5t67.5 -22.5v-26zM418 280l-87 253h-2l-95 -253h184z" />
    <glyph glyph-name="aogonek" unicode="&#x105;" horiz-adv-x="439" 
d="M424 65l10 -25q-9 -5 -50 -31q-38 -24 -70 -64.5t-32 -75.5q0 -46 53 -46q19 0 42 10l8 -26l-51 -30q-21 -12 -36 -12q-41 0 -62.5 20.5t-21.5 57.5q0 67 107 154q-34 16 -44 55q-5 -3 -24 -16.5t-27 -18.5t-23 -13.5t-25 -12t-19 -3.5q-52 0 -86 36.5t-34 85.5
q0 71 81 99q127 42 156 65v19q0 53 -22.5 83t-60.5 30q-27 0 -46 -21q-14 -15 -29 -65q-7 -24 -30 -24q-14 0 -28.5 13.5t-14.5 29.5q0 18 31 41q73 52 151 69q48 0 81 -27q44 -36 44 -121v-187q0 -60 36 -60q18 0 36 11zM276 85v156l-48 -23l-42 -19q-61 -28 -61 -74
q0 -36 22.5 -56.5t48.5 -20.5q45 2 80 37z" />
    <glyph glyph-name="Cacute" unicode="&#x106;" horiz-adv-x="665" 
d="M614 176l29 -11q-33 -110 -57 -153q-108 -27 -184 -27q-90 0 -160.5 29t-112.5 77t-63.5 105.5t-21.5 119.5q0 156 108 252.5t277 96.5q36 0 71.5 -5t69 -13.5t36.5 -8.5q15 -110 20 -151l-30 -7q-19 79 -65.5 114t-128.5 35q-119 0 -187.5 -86t-68.5 -207
q0 -140 73.5 -227.5t188.5 -87.5q73 0 119.5 37.5t86.5 117.5zM515 771l-2 -8l-185 -64l-13 25l157 102q9 -1 25 -22.5t18 -32.5z" />
    <glyph glyph-name="cacute" unicode="&#x107;" horiz-adv-x="423" 
d="M391 111l17 -21q-34 -45 -80.5 -73.5t-89.5 -28.5q-91 0 -145.5 62t-54.5 147q0 118 100 196q73 56 151 56q57 0 89 -26q16 -14 16 -31q0 -15 -12 -29t-21 -14q-7 0 -19 11q-44 41 -100 41q-52 0 -88 -42.5t-36 -117.5q0 -93 48.5 -139t102.5 -46q63 0 122 55zM228 493
l-26 13q17 38 67 159q8 3 40.5 7t40.5 2l3 -9z" />
    <glyph glyph-name="Ccircumflex" unicode="&#x108;" horiz-adv-x="665" 
d="M614 176l29 -11q-33 -110 -57 -153q-108 -27 -184 -27q-90 0 -160.5 29t-112.5 77t-63.5 105.5t-21.5 119.5q0 156 108 252.5t277 96.5q36 0 71.5 -5t69 -13.5t36.5 -8.5q15 -110 20 -151l-30 -7q-19 79 -65.5 114t-128.5 35q-119 0 -187.5 -86t-68.5 -207
q0 -140 73.5 -227.5t188.5 -87.5q73 0 119.5 37.5t86.5 117.5zM533 723l-16 -25q-57 24 -121 62q-79 -45 -120 -62l-16 25q90 69 126 107h21q33 -36 126 -107z" />
    <glyph glyph-name="ccircumflex" unicode="&#x109;" horiz-adv-x="423" 
d="M391 111l17 -21q-34 -45 -80.5 -73.5t-89.5 -28.5q-91 0 -145.5 62t-54.5 147q0 118 100 196q73 56 151 56q57 0 89 -26q16 -14 16 -31q0 -15 -12 -29t-21 -14q-7 0 -19 11q-44 41 -100 41q-52 0 -88 -42.5t-36 -117.5q0 -93 48.5 -139t102.5 -46q63 0 122 55zM356 508
l-24 -17q-44 42 -88 97q-43 -55 -88 -97l-24 17q56 80 100 163h25q47 -89 99 -163z" />
    <glyph glyph-name="Cdotaccent" unicode="&#x10a;" horiz-adv-x="665" 
d="M614 176l29 -11q-33 -110 -57 -153q-108 -27 -184 -27q-90 0 -160.5 29t-112.5 77t-63.5 105.5t-21.5 119.5q0 156 108 252.5t277 96.5q36 0 71.5 -5t69 -13.5t36.5 -8.5q15 -110 20 -151l-30 -7q-19 79 -65.5 114t-128.5 35q-119 0 -187.5 -86t-68.5 -207
q0 -140 73.5 -227.5t188.5 -87.5q73 0 119.5 37.5t86.5 117.5zM399 811q22 0 36.5 -15t14.5 -38q0 -22 -14.5 -36.5t-36.5 -14.5t-36.5 14.5t-14.5 36.5q0 23 14.5 38t36.5 15z" />
    <glyph glyph-name="cdotaccent" unicode="&#x10b;" horiz-adv-x="423" 
d="M391 111l17 -21q-34 -45 -80.5 -73.5t-89.5 -28.5q-91 0 -145.5 62t-54.5 147q0 118 100 196q73 56 151 56q57 0 89 -26q16 -14 16 -31q0 -15 -12 -29t-21 -14q-7 0 -19 11q-44 41 -100 41q-52 0 -88 -42.5t-36 -117.5q0 -93 48.5 -139t102.5 -46q63 0 122 55zM242 538
q-20 0 -35 15t-15 35q0 22 15 37.5t36 15.5t35 -15t14 -38q0 -21 -14.5 -35.5t-35.5 -14.5z" />
    <glyph glyph-name="Ccaron" unicode="&#x10c;" horiz-adv-x="665" 
d="M614 176l29 -11q-33 -110 -57 -153q-108 -27 -184 -27q-90 0 -160.5 29t-112.5 77t-63.5 105.5t-21.5 119.5q0 156 108 252.5t277 96.5q36 0 71.5 -5t69 -13.5t36.5 -8.5q15 -110 20 -151l-30 -7q-19 79 -65.5 114t-128.5 35q-119 0 -187.5 -86t-68.5 -207
q0 -140 73.5 -227.5t188.5 -87.5q73 0 119.5 37.5t86.5 117.5zM518 836l15 -26q-79 -59 -125 -107h-22q-40 41 -126 107l15 26q70 -31 122 -62q54 32 121 62z" />
    <glyph glyph-name="ccaron" unicode="&#x10d;" horiz-adv-x="423" 
d="M391 111l17 -21q-34 -45 -80.5 -73.5t-89.5 -28.5q-91 0 -145.5 62t-54.5 147q0 118 100 196q73 56 151 56q57 0 89 -26q16 -14 16 -31q0 -15 -12 -29t-21 -14q-7 0 -19 11q-44 41 -100 41q-52 0 -88 -42.5t-36 -117.5q0 -93 48.5 -139t102.5 -46q63 0 122 55zM335 675
l25 -17q-49 -68 -101 -163h-24q-47 88 -100 163l25 17q45 -43 87 -97q54 64 88 97z" />
    <glyph glyph-name="Dcaron" unicode="&#x10e;" horiz-adv-x="735" 
d="M42 650h281q194 0 283 -85q84 -82 84 -215q0 -174 -123 -267q-107 -83 -297 -83h-237v27q65 5 79.5 19.5t14.5 77.5v401q0 45 -6 62.5t-21.5 24t-57.5 9.5v29zM213 547v-416q0 -55 24.5 -75t81.5 -20q133 0 203 85.5t70 214.5q0 80 -30 142.5t-88 96.5q-64 41 -170 41
q-61 0 -78 -12q-13 -9 -13 -57zM464 821l15 -26q-79 -59 -125 -107h-22q-36 38 -126 107l16 26q71 -32 121 -62q54 32 121 62z" />
    <glyph glyph-name="dcaron" unicode="&#x10f;" horiz-adv-x="528" 
d="M517 51v-25q-101 -18 -155 -38v65l-61 -36q-49 -29 -78 -29q-68 0 -126.5 58t-58.5 155q0 103 77.5 175.5t180.5 72.5q34 0 66 -11v141q0 49 -11.5 59.5t-65.5 14.5v24q91 12 156 35v-597q0 -38 7.5 -48t36.5 -13zM362 85v276q-35 51 -103 51q-19 0 -40 -9t-42 -28
t-34.5 -57.5t-13.5 -89.5q0 -83 42 -130t95 -47q51 0 96 34zM529 711q25 0 43 -22t18 -57q0 -79 -86 -105l-11 27q46 24 46 57q0 29 -32 39q-13 4 -13 25q0 17 10.5 26.5t24.5 9.5z" />
    <glyph glyph-name="Dcroat" unicode="&#x110;" horiz-adv-x="737" 
d="M54 650h275q188 0 277 -86q86 -81 86 -214q0 -174 -125 -267q-110 -83 -292 -83h-230v28q65 5 79.5 21.5t14.5 87.5v183h-102v41h102v152q0 51 -6 71t-21.5 27.5t-57.5 10.5v28zM224 320v-188q0 -53 19 -74t78 -21q133 0 202 84.5t69 213.5q0 170 -115 242
q-62 40 -162 40q-60 0 -78 -10q-13 -7 -13 -43v-203h158v-41h-158z" />
    <glyph glyph-name="dcroat" unicode="&#x111;" horiz-adv-x="526" 
d="M517 51v-25q-102 -19 -155 -38v66l-63 -37q-49 -29 -76 -29q-68 0 -126.5 58.5t-59.5 155.5q0 101 77 174t180 73q36 0 68 -12v96h-133v37h132v21q-1 41 -11.5 50t-61.5 14v23q75 10 152 35v-143h76v-37h-76v-417q0 -39 8 -49.5t37 -12.5zM362 85v276q-18 25 -46.5 38.5
t-55.5 13.5q-18 0 -38.5 -8.5t-42.5 -27.5t-36.5 -58t-14.5 -91q0 -84 42 -131t96 -47q45 0 96 35z" />
    <glyph glyph-name="Emacron" unicode="&#x112;" horiz-adv-x="568" 
d="M516 162l30 -4q-18 -100 -35 -158h-482v28q68 5 83.5 20t15.5 76v398q0 66 -13 80.5t-73 19.5v28h446q0 -8 8 -144l-29 -5q-11 50 -32 86q-11 16 -35 22t-78 6h-76q-23 0 -28 -4.5t-5 -27.5v-227h94q66 0 82 11.5t26 63.5h29v-192h-29q-10 54 -26 66t-81 12h-95v-189
q0 -64 24 -81q21 -13 104 -13q57 0 83 7t43 27q30 35 49 94zM411 716h-223v52h223v-52z" />
    <glyph glyph-name="emacron" unicode="&#x113;" horiz-adv-x="425" 
d="M379 106l16 -21q-42 -53 -87 -75t-76 -22q-89 0 -142 62t-53 151q0 103 66 175q65 73 147 73q61 0 105.5 -46t44.5 -106q0 -27 -23 -32q-58 -10 -261 -17q1 -95 45.5 -143.5t103.5 -48.5q61 0 114 50zM226 412q-36 0 -65 -32t-40 -91q82 0 169 3q24 0 24 20
q1 41 -23.5 70.5t-64.5 29.5zM339 548h-219v55h219v-55z" />
    <glyph glyph-name="Ebreve" unicode="&#x114;" horiz-adv-x="568" 
d="M516 162l30 -4q-18 -100 -35 -158h-482v28q68 5 83.5 20t15.5 76v398q0 66 -13 80.5t-73 19.5v28h446q0 -8 8 -144l-29 -5q-11 50 -32 86q-11 16 -35 22t-78 6h-76q-23 0 -28 -4.5t-5 -27.5v-227h94q66 0 82 11.5t26 63.5h29v-192h-29q-10 54 -26 66t-81 12h-95v-189
q0 -64 24 -81q21 -13 104 -13q57 0 83 7t43 27q30 35 49 94zM386 814h30q-1 -58 -32.5 -88t-84.5 -30q-54 0 -85 30t-32 88h30q16 -62 87 -62t87 62z" />
    <glyph glyph-name="ebreve" unicode="&#x115;" horiz-adv-x="425" 
d="M379 106l16 -21q-42 -53 -87 -75t-76 -22q-89 0 -142 62t-53 151q0 103 66 175q65 73 147 73q61 0 105.5 -46t44.5 -106q0 -27 -23 -32q-58 -10 -261 -17q1 -95 45.5 -143.5t103.5 -48.5q61 0 114 50zM226 412q-36 0 -65 -32t-40 -91q82 0 169 3q24 0 24 20
q1 41 -23.5 70.5t-64.5 29.5zM313 648h30q0 -73 -31 -105t-81 -32q-49 0 -79.5 32t-30.5 105h30q11 -79 81 -79t81 79z" />
    <glyph glyph-name="Edotaccent" unicode="&#x116;" horiz-adv-x="568" 
d="M516 162l30 -4q-18 -100 -35 -158h-482v28q68 5 83.5 20t15.5 76v398q0 66 -13 80.5t-73 19.5v28h446q0 -8 8 -144l-29 -5q-11 50 -32 86q-11 16 -35 22t-78 6h-76q-23 0 -28 -4.5t-5 -27.5v-227h94q66 0 82 11.5t26 63.5h29v-192h-29q-10 54 -26 66t-81 12h-95v-189
q0 -64 24 -81q21 -13 104 -13q57 0 83 7t43 27q30 35 49 94zM298 807q22 0 37 -15.5t15 -37.5t-15 -36.5t-37 -14.5q-21 0 -36 14.5t-15 36.5t15 37.5t36 15.5z" />
    <glyph glyph-name="edotaccent" unicode="&#x117;" horiz-adv-x="425" 
d="M379 106l16 -21q-42 -53 -87 -75t-76 -22q-89 0 -142 62t-53 151q0 103 66 175q65 73 147 73q61 0 105.5 -46t44.5 -106q0 -27 -23 -32q-58 -10 -261 -17q1 -95 45.5 -143.5t103.5 -48.5q61 0 114 50zM226 412q-36 0 -65 -32t-40 -91q82 0 169 3q24 0 24 20
q1 41 -23.5 70.5t-64.5 29.5zM228 538q-20 0 -35 15t-15 35q0 22 15 37.5t36 15.5t35 -15t14 -38q0 -21 -14.5 -35.5t-35.5 -14.5z" />
    <glyph glyph-name="Eogonek" unicode="&#x118;" horiz-adv-x="568" 
d="M517 163l29 -5q-18 -100 -35 -158h-37q-36 -30 -58.5 -68t-22.5 -66q0 -45 50 -45q24 0 47 11l8 -26l-53 -32q-18 -12 -37 -12q-43 0 -63.5 21t-20.5 54q0 37 31.5 81t78.5 82h-405v28q69 5 84 20.5t15 79.5v391q0 67 -13.5 82.5t-72.5 20.5v28h444q1 -29 10 -144l-29 -4
q-14 61 -36 87q-14 15 -37 20.5t-76 5.5h-72q-23 0 -28 -5t-5 -27v-224h97q67 0 81 10t24 61h29v-186h-29q-10 53 -24.5 63.5t-79.5 10.5h-98v-187q0 -67 24 -84q21 -13 104 -13q54 0 82 8t45 27q20 25 49 94z" />
    <glyph glyph-name="eogonek" unicode="&#x119;" horiz-adv-x="424" 
d="M265 -7l-1 3q-24 -8 -33 -8q-89 0 -142 62t-53 151q0 103 65 173q67 75 148 75q61 0 106 -46.5t45 -105.5q0 -16 -4.5 -23t-18.5 -10q-47 -9 -262 -16q1 -95 45.5 -144t103.5 -49q61 0 115 51l16 -21q-26 -32 -53 -53q-42 -35 -76 -82t-34 -83q0 -21 13 -32.5t34 -11.5
q23 0 51 13l8 -24l-55 -35q-16 -11 -37 -11q-41 0 -62 21.5t-21 50.5q0 71 102 155zM225 413q-36 0 -66 -33t-39 -91q25 0 53.5 0.5t63 1.5t54.5 1q13 0 18 4t5 14q1 41 -24 72t-65 31z" />
    <glyph glyph-name="Ecaron" unicode="&#x11a;" horiz-adv-x="568" 
d="M516 162l30 -4q-18 -100 -35 -158h-482v28q68 5 83.5 20t15.5 76v398q0 66 -13 80.5t-73 19.5v28h446q0 -8 8 -144l-29 -5q-11 50 -32 86q-11 16 -35 22t-78 6h-76q-23 0 -28 -4.5t-5 -27.5v-227h94q66 0 82 11.5t26 63.5h29v-192h-29q-10 54 -26 66t-81 12h-95v-189
q0 -64 24 -81q21 -13 104 -13q57 0 83 7t43 27q30 35 49 94zM416 821l15 -25q-86 -66 -125 -108h-22q-40 42 -126 108l15 25q66 -27 122 -61q58 34 121 61z" />
    <glyph glyph-name="ecaron" unicode="&#x11b;" horiz-adv-x="425" 
d="M379 106l16 -21q-42 -53 -87 -75t-76 -22q-89 0 -142 62t-53 151q0 103 66 175q65 73 147 73q61 0 105.5 -46t44.5 -106q0 -27 -23 -32q-58 -10 -261 -17q1 -95 45.5 -143.5t103.5 -48.5q61 0 114 50zM226 412q-36 0 -65 -32t-40 -91q82 0 169 3q24 0 24 20
q1 41 -23.5 70.5t-64.5 29.5zM318 675l25 -17q-56 -77 -101 -163h-25q-50 93 -99 163l24 17q49 -48 88 -97q49 60 88 97z" />
    <glyph glyph-name="Gcircumflex" unicode="&#x11c;" horiz-adv-x="715" 
d="M692 301v-27q-45 -7 -54.5 -18t-9.5 -55v-85q0 -62 7 -94q-153 -37 -224 -37q-164 0 -265.5 93t-101.5 242q0 84 32 151.5t86 108.5t121.5 63t142.5 22q23 0 47.5 -2t47.5 -6t39 -7l34 -8l24 -6q7 -82 16 -156l-28 -6q-17 86 -67 120.5t-128 34.5q-117 0 -191 -80.5
t-74 -216.5q0 -56 17 -110t49.5 -100t87.5 -74t124 -28q51 0 87 18q17 9 24.5 22.5t7.5 42.5v85q0 54 -16 67t-89 19v27h254zM537 716l-16 -25q-51 24 -121 62q-92 -50 -119 -62l-17 25q90 69 126 107h22q39 -41 125 -107z" />
    <glyph glyph-name="gcircumflex" unicode="&#x11d;" horiz-adv-x="468" 
d="M462 438l6 -8q-21 -38 -45 -51l-57 3q30 -35 30 -89q0 -76 -52.5 -118t-122.5 -42q-11 0 -51 5q-30 -19 -30 -41q0 -17 15.5 -28t47.5 -11q18 0 53.5 0.5t51.5 0.5q36 0 65.5 -8t54 -36t24.5 -74q0 -76 -75.5 -137t-174.5 -61q-78 0 -125 37.5t-48 84.5q0 32 24 56
q31 31 83 70q-49 15 -74 55q-13 22 -11 42q56 21 88 61q-37 16 -62.5 51t-25.5 83q0 79 56.5 122.5t122.5 43.5q51 0 96 -25q69 3 136 14zM220 419q-35 0 -59 -32t-24 -88q0 -59 26 -96.5t68 -37.5q35 1 59 32t24 87q0 60 -26 97.5t-68 37.5zM242 -11q-63 0 -88 -22
q-46 -37 -46 -78q0 -40 38 -67.5t94 -27.5q69 0 106.5 31t37.5 80q0 52 -46 71q-32 13 -96 13zM337 508l-25 -17q-40 38 -87 97q-47 -58 -89 -97l-24 17q49 68 101 163h25q47 -89 99 -163z" />
    <glyph glyph-name="Gbreve" unicode="&#x11e;" horiz-adv-x="715" 
d="M692 301v-27q-45 -7 -54.5 -18t-9.5 -55v-85q0 -62 7 -94q-153 -37 -224 -37q-164 0 -265.5 93t-101.5 242q0 84 32 151.5t86 108.5t121.5 63t142.5 22q23 0 47.5 -2t47.5 -6t39 -7l34 -8l24 -6q7 -82 16 -156l-28 -6q-17 86 -67 120.5t-128 34.5q-117 0 -191 -80.5
t-74 -216.5q0 -56 17 -110t49.5 -100t87.5 -74t124 -28q51 0 87 18q17 9 24.5 22.5t7.5 42.5v85q0 54 -16 67t-89 19v27h254zM479 822h30q-1 -58 -33 -88t-85 -30t-84 30t-32 88h30q14 -62 86 -62q70 0 88 62z" />
    <glyph glyph-name="gbreve" unicode="&#x11f;" horiz-adv-x="468" 
d="M462 438l6 -8q-21 -38 -45 -51l-57 3q30 -35 30 -89q0 -76 -52.5 -118t-122.5 -42q-11 0 -51 5q-30 -19 -30 -41q0 -17 15.5 -28t47.5 -11q18 0 53.5 0.5t51.5 0.5q36 0 65.5 -8t54 -36t24.5 -74q0 -76 -75.5 -137t-174.5 -61q-78 0 -125 37.5t-48 84.5q0 32 24 56
q31 31 83 70q-49 15 -74 55q-13 22 -11 42q56 21 88 61q-37 16 -62.5 51t-25.5 83q0 79 56.5 122.5t122.5 43.5q51 0 96 -25q69 3 136 14zM220 419q-35 0 -59 -32t-24 -88q0 -59 26 -96.5t68 -37.5q35 1 59 32t24 87q0 60 -26 97.5t-68 37.5zM242 -11q-63 0 -88 -22
q-46 -37 -46 -78q0 -40 38 -67.5t94 -27.5q69 0 106.5 31t37.5 80q0 52 -46 71q-32 13 -96 13zM305 648h30q0 -73 -31 -105t-81 -32q-49 0 -79.5 32t-30.5 105h30q11 -79 81 -79t81 79z" />
    <glyph glyph-name="Gdotaccent" unicode="&#x120;" horiz-adv-x="715" 
d="M692 301v-27q-45 -7 -54.5 -18t-9.5 -55v-85q0 -62 7 -94q-153 -37 -224 -37q-164 0 -265.5 93t-101.5 242q0 84 32 151.5t86 108.5t121.5 63t142.5 22q23 0 47.5 -2t47.5 -6t39 -7l34 -8l24 -6q7 -82 16 -156l-28 -6q-17 86 -67 120.5t-128 34.5q-117 0 -191 -80.5
t-74 -216.5q0 -56 17 -110t49.5 -100t87.5 -74t124 -28q51 0 87 18q17 9 24.5 22.5t7.5 42.5v85q0 54 -16 67t-89 19v27h254zM399 809q22 0 36.5 -15t14.5 -38q0 -21 -14.5 -36t-36.5 -15t-36.5 15t-14.5 36q0 23 14.5 38t36.5 15z" />
    <glyph glyph-name="gdotaccent" unicode="&#x121;" horiz-adv-x="468" 
d="M462 438l6 -8q-21 -38 -45 -51l-57 3q30 -35 30 -89q0 -76 -52.5 -118t-122.5 -42q-11 0 -51 5q-30 -19 -30 -41q0 -17 15.5 -28t47.5 -11q18 0 53.5 0.5t51.5 0.5q36 0 65.5 -8t54 -36t24.5 -74q0 -76 -75.5 -137t-174.5 -61q-78 0 -125 37.5t-48 84.5q0 32 24 56
q31 31 83 70q-49 15 -74 55q-13 22 -11 42q56 21 88 61q-37 16 -62.5 51t-25.5 83q0 79 56.5 122.5t122.5 43.5q51 0 96 -25q69 3 136 14zM220 419q-35 0 -59 -32t-24 -88q0 -59 26 -96.5t68 -37.5q35 1 59 32t24 87q0 60 -26 97.5t-68 37.5zM242 -11q-63 0 -88 -22
q-46 -37 -46 -78q0 -40 38 -67.5t94 -27.5q69 0 106.5 31t37.5 80q0 52 -46 71q-32 13 -96 13zM224 538q-20 0 -35 15t-15 35q0 22 15 37.5t36 15.5t35.5 -15.5t14.5 -37.5q0 -20 -14.5 -35t-36.5 -15z" />
    <glyph glyph-name="uni0122" unicode="&#x122;" horiz-adv-x="715" 
d="M692 301v-27q-45 -7 -54.5 -18t-9.5 -55v-85q0 -62 7 -94q-153 -37 -224 -37q-164 0 -265.5 93t-101.5 242q0 84 32 151.5t86 108.5t121.5 63t142.5 22q23 0 47.5 -2t47.5 -6t39 -7l34 -8l24 -6q7 -82 16 -156l-28 -6q-17 86 -67 120.5t-128 34.5q-117 0 -191 -80.5
t-74 -216.5q0 -56 17 -110t49.5 -100t87.5 -74t124 -28q51 0 87 18q17 9 24.5 22.5t7.5 42.5v85q0 54 -16 67t-89 19v27h254zM395 -47q29 0 51 -22.5t22 -56.5q0 -78 -106 -106l-9 28q60 26 60 56t-45 41q-15 4 -15 23q0 18 12.5 27.5t29.5 9.5z" />
    <glyph glyph-name="uni0123" unicode="&#x123;" horiz-adv-x="468" 
d="M462 438l6 -8q-21 -38 -45 -51l-57 3q30 -35 30 -89q0 -76 -52.5 -118t-122.5 -42q-11 0 -51 5q-30 -19 -30 -41q0 -17 15.5 -28t47.5 -11q18 0 53.5 0.5t51.5 0.5q36 0 65.5 -8t54 -36t24.5 -74q0 -76 -75.5 -137t-174.5 -61q-78 0 -125 37.5t-48 84.5q0 32 24 56
q31 31 83 70q-49 15 -74 55q-13 22 -11 42q56 21 88 61q-37 16 -62.5 51t-25.5 83q0 79 56.5 122.5t122.5 43.5q51 0 96 -25q69 3 136 14zM220 419q-35 0 -59 -32t-24 -88q0 -59 26 -96.5t68 -37.5q35 1 59 32t24 87q0 60 -26 97.5t-68 37.5zM242 -11q-63 0 -88 -22
q-46 -37 -46 -78q0 -40 38 -67.5t94 -27.5q69 0 106.5 31t37.5 80q0 52 -46 71q-32 13 -96 13zM237 518q-30 0 -52.5 22.5t-22.5 57.5q0 78 108 106l8 -27q-60 -26 -60 -57q0 -30 46 -41q14 -3 14 -23q0 -18 -12.5 -28t-28.5 -10z" />
    <glyph glyph-name="Hcircumflex" unicode="&#x124;" horiz-adv-x="766" 
d="M729 650v-28q-62 -5 -76 -19.5t-14 -75.5v-404q0 -62 13.5 -76t75.5 -19v-28h-268v28q65 5 79.5 19t14.5 76v200h-341v-200q0 -62 14 -76t76 -19v-28h-263v28q61 5 74.5 19t13.5 76v404q0 62 -13.5 76t-76.5 19v28h259v-28q-58 -5 -71 -19.5t-13 -75.5v-162h341v162
q0 61 -13.5 75.5t-72.5 19.5v28h261zM519 709l-16 -25q-54 24 -121 62q-79 -45 -119 -62l-17 25q90 69 126 107h22q39 -41 125 -107z" />
    <glyph glyph-name="hcircumflex" unicode="&#x125;" horiz-adv-x="534" 
d="M513 0h-211v26q44 5 55 17t11 60v166q0 123 -98 123q-59 0 -104 -51v-238q0 -48 10 -60.5t54 -16.5v-26h-212v26q46 4 57.5 16t11.5 61v477q0 48 -9.5 59t-58.5 15v23q63 9 147 35v-336q71 73 143 73q64 0 101 -42t37 -129v-175q0 -49 10.5 -61t55.5 -16v-26zM253 747
l-16 -25q-50 21 -121 62q-79 -45 -120 -62l-16 25q93 71 126 107h22q39 -41 125 -107z" />
    <glyph glyph-name="Hbar" unicode="&#x126;" horiz-adv-x="766" 
d="M727 472h-88v-343q0 -65 14 -80.5t75 -20.5v-28h-268v28q64 5 79 20.5t15 80.5v181h-341v-181q0 -65 14 -80.5t76 -20.5v-28h-263v28q33 2 48 5.5t25.5 15t12.5 28t2 52.5v343h-88v36h88v18q0 63 -14 77t-76 19v28h259v-28q-58 -5 -71 -19t-13 -77v-18h341v18
q0 63 -13 77t-73 19v28h261v-28q-62 -5 -76 -19.5t-14 -76.5v-18h88v-36zM554 352v120h-341v-120h341z" />
    <glyph glyph-name="hbar" unicode="&#x127;" horiz-adv-x="533" 
d="M513 0h-210v26q44 4 54.5 16.5t10.5 61.5v166q0 122 -97 122q-64 0 -105 -52v-235q0 -49 10.5 -62t53.5 -17v-26h-210v26q44 4 55.5 17t11.5 63v430h-69v36h69v52q0 24 -7.5 30.5t-37.5 10.5v24q51 6 124 28v-145h155v-36h-155v-160q66 72 144 73q63 2 100 -40t37 -125
v-180q0 -49 11 -61.5t55 -16.5v-26z" />
    <glyph glyph-name="Itilde" unicode="&#x128;" horiz-adv-x="341" 
d="M303 0h-265v28q62 5 76 19.5t14 77.5v400q0 63 -14 77.5t-76 19.5v28h265v-28q-62 -5 -76 -19.5t-14 -77.5v-400q0 -64 14 -78t76 -19v-28zM119 788q21 0 62 -19q34 -16 54 -16q26 0 46 43l25 -14q-27 -85 -82 -85q-23 0 -70 22q-28 14 -44 14q-25 0 -47 -44l-24 17
q31 82 80 82z" />
    <glyph glyph-name="itilde" unicode="&#x129;" horiz-adv-x="268" 
d="M252 0h-219v26q48 5 59 18t11 64v200q0 50 -9.5 61.5t-53.5 18.5v24q77 12 142 39v-343q0 -52 11 -64.5t59 -17.5v-26zM31 521l-26 16q29 90 80 90q21 0 58 -19q38 -19 53 -19q24 0 44 45l25 -14q-27 -90 -79 -90q-23 0 -66 24q-27 15 -46 15q-24 0 -43 -48z" />
    <glyph glyph-name="Imacron" unicode="&#x12a;" horiz-adv-x="341" 
d="M303 0h-265v28q62 5 76 19.5t14 77.5v400q0 63 -14 77.5t-76 19.5v28h265v-28q-62 -5 -76 -19.5t-14 -77.5v-400q0 -64 14 -78t76 -19v-28zM282 715h-223v52h223v-52z" />
    <glyph glyph-name="imacron" unicode="&#x12b;" horiz-adv-x="268" 
d="M252 0h-219v26q48 5 59 18t11 64v200q0 50 -9.5 61.5t-53.5 18.5v24q77 12 142 39v-343q0 -52 11 -64.5t59 -17.5v-26zM240 548h-220v55h220v-55z" />
    <glyph glyph-name="Ibreve" unicode="&#x12c;" horiz-adv-x="341" 
d="M303 0h-265v28q62 5 76 19.5t14 77.5v400q0 63 -14 77.5t-76 19.5v28h265v-28q-62 -5 -76 -19.5t-14 -77.5v-400q0 -64 14 -78t76 -19v-28zM258 813h30q-1 -58 -33 -88t-85 -30t-84 30t-32 88h30q14 -61 86 -61q71 0 88 61z" />
    <glyph glyph-name="ibreve" unicode="&#x12d;" horiz-adv-x="268" 
d="M252 0h-219v26q48 5 59 18t11 64v200q0 50 -9.5 61.5t-53.5 18.5v24q77 12 142 39v-343q0 -52 11 -64.5t59 -17.5v-26zM211 648h30q0 -73 -31 -105t-81 -32q-49 0 -79.5 32t-30.5 105h30q11 -79 81 -79t81 79z" />
    <glyph glyph-name="Iogonek" unicode="&#x12e;" horiz-adv-x="341" 
d="M303 0h-114q-35 -74 -35 -124q0 -26 16.5 -41t42.5 -15q21 0 49 13l8 -25l-56 -34q-18 -11 -39 -11q-44 0 -66 23.5t-22 57.5q0 10 2 20.5t4 19t8 21t8.5 19t10.5 20.5l12 18l12 20l11 18h-117v27q62 5 76 20t14 80v395q0 65 -14 80.5t-76 20.5v27h265v-27
q-62 -5 -76 -20.5t-14 -80.5v-395q0 -64 14 -79.5t76 -20.5v-27z" />
    <glyph glyph-name="iogonek" unicode="&#x12f;" horiz-adv-x="268" 
d="M252 0h-93q-35 -70 -35 -119q0 -57 56 -57q17 0 45 10l8 -25l-51 -30q-18 -12 -36 -12q-42 0 -64 21.5t-22 59.5q0 54 66 152h-94v26q48 5 59 17.5t11 63.5v201q0 50 -9.5 61.5t-53.5 18.5v24q77 12 142 39v-344q0 -51 11.5 -63.5t59.5 -17.5v-26zM136 538q-20 0 -35 15
t-15 35q0 22 15 37.5t36 15.5t35 -15t14 -38q0 -21 -14.5 -35.5t-35.5 -14.5z" />
    <glyph glyph-name="Idotaccent" unicode="&#x130;" horiz-adv-x="341" 
d="M303 0h-265v28q62 5 76 19.5t14 77.5v400q0 63 -14 77.5t-76 19.5v28h265v-28q-62 -5 -76 -19.5t-14 -77.5v-400q0 -64 14 -78t76 -19v-28zM171 806q21 0 36 -15t15 -37t-15 -36.5t-36 -14.5q-22 0 -37 14.5t-15 36.5t15 37t37 15z" />
    <glyph glyph-name="dotlessi" unicode="&#x131;" horiz-adv-x="268" 
d="M252 0h-219v26q48 5 59 18t11 64v200q0 50 -9.5 61.5t-53.5 18.5v24q77 12 142 39v-343q0 -52 11 -64.5t59 -17.5v-26z" />
    <glyph glyph-name="IJ" unicode="&#x132;" horiz-adv-x="669" 
d="M303 0h-265v28q62 5 76 19.5t14 77.5v400q0 63 -14 77.5t-76 19.5v28h265v-28q-62 -5 -76 -19.5t-14 -77.5v-400q0 -64 14 -78t76 -19v-28zM644 650v-28q-58 -5 -72 -20t-14 -77v-374q0 -98 -18.5 -155.5t-67.5 -102.5q-48 -44 -92 -58l-13 28q78 39 96 131q11 59 11 190
v341q0 62 -14.5 77t-75.5 20v28h260z" />
    <glyph glyph-name="ij" unicode="&#x133;" horiz-adv-x="522" 
d="M135 536q-20 0 -35 15.5t-15 35.5q0 22 15 37t36 15t35.5 -15t14.5 -37q0 -21 -15 -36t-36 -15zM252 0h-220v26q48 5 59 17t11 63v206q0 47 -9 58t-54 18v24q76 12 142 39v-345q0 -51 11.5 -63t59.5 -17v-26zM390 536q-20 0 -34.5 15.5t-14.5 35.5q0 22 14.5 37t35.5 15
t35.5 -15t14.5 -37q0 -21 -15 -36t-36 -15zM290 389v23q83 12 146 39v-339q0 -98 -23 -162q-23 -66 -60 -120.5t-61 -75.5q-14 -11 -26 -11q-11 0 -23.5 13.5t-12.5 30.5q0 19 21 23q54 13 73 38q16 20 25 72q8 57 8 193v195q0 51 -10 62.5t-57 18.5z" />
    <glyph glyph-name="Jcircumflex" unicode="&#x134;" horiz-adv-x="329" 
d="M303 650v-28q-58 -5 -71.5 -19.5t-13.5 -77.5v-374q0 -98 -18.5 -155.5t-67.5 -102.5q-48 -44 -93 -58l-13 28q80 40 96 131q11 59 11 190v341q0 63 -14 77.5t-75 19.5v28h259zM309 709l-16 -25q-54 24 -121 62q-79 -45 -119 -62l-16 25q92 72 125 107h22
q39 -41 125 -107z" />
    <glyph glyph-name="jcircumflex" unicode="&#x135;" horiz-adv-x="258" 
d="M33 392v20q87 13 149 39v-340q0 -97 -23 -162q-23 -66 -60 -120.5t-61 -75.5q-16 -11 -26 -11q-11 0 -22.5 12.5t-11.5 29.5q0 19 20 23q53 13 72 39q17 21 24 73q9 63 9 194v196q0 52 -10.5 64t-59.5 19zM241 508l-25 -17q-47 44 -87 97q-47 -58 -89 -97l-24 17
q52 72 100 163h25q51 -93 100 -163z" />
    <glyph glyph-name="uni0136" unicode="&#x136;" horiz-adv-x="673" 
d="M667 0h-154l-248 291q-28 33 -54 28v-190q0 -65 15 -80.5t77 -20.5v-28h-260v28q58 5 71.5 20.5t13.5 80.5v391q0 37 -2 54t-13 28.5t-25.5 14t-47.5 5.5v28h258v-28q-59 -5 -73 -20.5t-14 -81.5v-175q29 8 70 46q110 106 168 177q22 27 19.5 37t-36.5 14l-22 3v28h240
v-28q-57 -5 -86 -18.5t-77 -56.5q-49 -45 -177 -175q116 -144 235 -272q39 -41 61.5 -54t60.5 -18v-28zM362 -22q30 0 52 -22.5t22 -56.5q0 -78 -106 -106l-10 28q61 24 61 56q0 29 -46 40q-14 6 -14 24q0 17 12.5 27t28.5 10z" />
    <glyph glyph-name="uni0137" unicode="&#x137;" horiz-adv-x="496" 
d="M513 0l-137 -2q-16 18 -164 198q-17 22 -31 22q-5 0 -16 -3v-111q0 -49 12 -61t61 -17v-26h-224v26q50 4 61.5 17t11.5 61v473q0 49 -10 60.5t-56 16.5v23q57 6 144 35v-471q37 7 63 35q31 31 71 88q16 23 10.5 31.5t-40.5 12.5v26l204 9v-25q-51 -9 -75.5 -20t-53.5 -39
q-31 -31 -86 -95q14 -22 71 -88.5t84 -94.5q27 -29 49.5 -41.5t50.5 -13.5v-26zM263 -33q30 0 52 -22t22 -56q0 -80 -106 -106l-9 27q60 26 60 56t-45 41q-15 4 -15 24q0 17 12.5 26.5t28.5 9.5z" />
    <glyph glyph-name="kgreenlandic" unicode="&#x138;" horiz-adv-x="525" 
d="M520 0h-136q-54 59 -154 190q-20 26 -45 15v-98q0 -51 11.5 -64t58.5 -17v-26h-218v26q47 4 58.5 16.5t11.5 64.5v215q0 49 -11 62t-57 18v25q70 5 146 25v-218q27 5 50 25q67 60 103 107q28 36 -12 42l-17 3v26h197v-26q-38 -4 -61.5 -13.5t-54.5 -35.5
q-38 -31 -113 -106q77 -105 151 -179q28 -28 45 -37.5t47 -13.5v-26z" />
    <glyph glyph-name="Lacute" unicode="&#x139;" horiz-adv-x="538" 
d="M495 163l30 -6q-19 -99 -36 -157h-453v28q63 5 77.5 20t14.5 78v400q0 45 -6 62.5t-22 24t-60 9.5v28h261v-28q-60 -5 -74 -19t-14 -77v-395q0 -41 5 -59t18 -25q24 -13 96 -13q85 0 112 31q31 36 51 98zM319 756l-2 -8l-186 -64l-12 25l157 102q9 -1 25 -22.5t18 -32.5z
" />
    <glyph glyph-name="lacute" unicode="&#x13a;" horiz-adv-x="253" 
d="M238 0h-223v26q48 5 60 17t12 61v473q0 50 -10.5 61t-58.5 15v24q73 8 148 35v-608q0 -49 11.5 -61t60.5 -17v-26zM251 802l-2 -8l-186 -64l-12 25l157 102q8 -1 24 -22t19 -33z" />
    <glyph glyph-name="uni013B" unicode="&#x13b;" horiz-adv-x="538" 
d="M495 163l30 -6q-19 -99 -36 -157h-453v28q63 5 77.5 20t14.5 78v400q0 45 -6 62.5t-22 24t-60 9.5v28h261v-28q-60 -5 -74 -19t-14 -77v-395q0 -41 5 -59t18 -25q24 -13 96 -13q85 0 112 31q31 36 51 98zM292 -35q30 0 52 -22t22 -56q0 -80 -106 -106l-9 27q60 26 60 56
t-45 41q-15 4 -15 24q0 17 12.5 26.5t28.5 9.5z" />
    <glyph glyph-name="uni013C" unicode="&#x13c;" horiz-adv-x="253" 
d="M238 0h-223v26q48 5 60 17t12 61v473q0 50 -10.5 61t-58.5 15v24q73 8 148 35v-608q0 -49 11.5 -61t60.5 -17v-26zM115 -34q30 0 52 -22.5t22 -56.5q0 -78 -106 -106l-10 28q61 24 61 56q0 29 -46 40q-15 6 -15 24q0 17 13 27t29 10z" />
    <glyph glyph-name="Lcaron" unicode="&#x13d;" horiz-adv-x="538" 
d="M495 163l30 -6q-19 -99 -36 -157h-453v28q63 5 77.5 20t14.5 78v400q0 45 -6 62.5t-22 24t-60 9.5v28h261v-28q-60 -5 -74 -19t-14 -77v-395q0 -41 5 -59t18 -25q24 -13 96 -13q85 0 112 31q31 36 51 98zM384 655q25 0 43 -22.5t18 -57.5q0 -77 -87 -105l-10 28
q46 24 46 57q0 28 -32 38q-14 5 -14 25q0 17 11 27t25 10z" />
    <glyph glyph-name="lcaron" unicode="&#x13e;" horiz-adv-x="253" 
d="M238 0h-223v26q48 5 60 17t12 61v473q0 50 -10.5 61t-58.5 15v24q73 8 148 35v-608q0 -49 11.5 -61t60.5 -17v-26zM247 711q25 0 43 -22t18 -57q0 -79 -86 -105l-10 27q45 23 45 57q0 29 -32 39q-13 4 -13 25q0 17 10.5 26.5t24.5 9.5z" />
    <glyph glyph-name="Ldot" unicode="&#x13f;" horiz-adv-x="538" 
d="M495 163l30 -6q-19 -99 -36 -157h-453v28q63 5 77.5 20t14.5 78v400q0 45 -6 62.5t-22 24t-60 9.5v28h261v-28q-60 -5 -74 -19t-14 -77v-395q0 -41 5 -59t18 -25q24 -13 96 -13q85 0 112 31q31 36 51 98zM361 406q21 0 36 -15.5t15 -37.5q0 -21 -15 -36t-36 -15
q-22 0 -37 15t-15 36q0 22 15 37.5t37 15.5z" />
    <glyph glyph-name="ldot" unicode="&#x140;" horiz-adv-x="271" 
d="M262 407q21 0 35 -14.5t14 -36.5q0 -21 -14 -35.5t-35 -14.5q-20 0 -34.5 14.5t-14.5 35.5t14.5 36t34.5 15zM238 0h-223v26q48 5 60 17t12 61v473q0 50 -10.5 61t-58.5 15v24q73 8 148 35v-608q0 -49 11.5 -61t60.5 -17v-26z" />
    <glyph glyph-name="Lslash" unicode="&#x141;" horiz-adv-x="550" 
d="M506 165l31 -4q-26 -125 -36 -161h-455v28q65 5 79.5 20.5t14.5 82.5v146l-98 -73v45l98 74v198q0 64 -14 80t-74 21v28h261v-28q-60 -5 -74 -21t-14 -80v-138l126 95v-47l-126 -95v-195q0 -45 4.5 -65.5t18.5 -28.5q22 -13 95 -13q47 0 71.5 6t40.5 25q26 29 51 100z
" />
    <glyph glyph-name="lslash" unicode="&#x142;" horiz-adv-x="273" 
d="M270 462l-90 -77v-277q0 -52 12 -64.5t62 -17.5v-26h-227v26q50 5 62 17.5t12 64.5v214l-74 -61v46l74 60v216q0 46 -10.5 57t-59.5 17v23q87 10 149 35v-285l90 78v-46z" />
    <glyph glyph-name="Nacute" unicode="&#x143;" horiz-adv-x="743" 
d="M719 650v-28q-43 -2 -62 -15t-22 -45q-6 -45 -6 -168v-403h-31l-426 524h-2v-251q0 -111 6 -169q4 -37 24 -50.5t72 -16.5v-28h-237v28q45 2 64.5 15.5t23.5 49.5q6 62 6 171v220q0 53 -3 67.5t-17 33.5q-25 32 -89 37v28h148l417 -502h3v246q0 101 -7 166
q-4 33 -24.5 46t-73.5 16v28h236zM508 756l-2 -8l-185 -64l-12 25l157 102q9 -1 24.5 -22.5t17.5 -32.5z" />
    <glyph glyph-name="nacute" unicode="&#x144;" horiz-adv-x="547" 
d="M523 0h-208v26q44 5 55 18t11 65v167q0 114 -91 114q-50 0 -109 -51v-235q0 -50 10 -61.5t55 -16.5v-26h-217v26q51 5 62 17t11 61v207q0 47 -9 58t-51 19v23q83 16 139 41v-80l67 47q47 30 83 30q60 0 94.5 -40t34.5 -112v-193q0 -50 9.5 -61.5t53.5 -16.5v-26zM266 493
l-26 13q17 38 67 159q8 3 40.5 7t40.5 2l3 -9z" />
    <glyph glyph-name="uni0145" unicode="&#x145;" horiz-adv-x="743" 
d="M719 650v-28q-43 -2 -62 -15t-22 -45q-6 -45 -6 -168v-403h-31l-426 524h-2v-251q0 -111 6 -169q4 -37 24 -50.5t72 -16.5v-28h-237v28q45 2 64.5 15.5t23.5 49.5q6 62 6 171v220q0 53 -3 67.5t-17 33.5q-25 32 -89 37v28h148l417 -502h3v246q0 101 -7 166
q-4 33 -24.5 46t-73.5 16v28h236zM384 -13q30 0 52 -22.5t22 -56.5q0 -80 -106 -106l-9 28q60 24 60 55q0 30 -45 41q-15 4 -15 24q0 17 12.5 27t28.5 10z" />
    <glyph glyph-name="uni0146" unicode="&#x146;" horiz-adv-x="547" 
d="M523 0h-208v26q44 5 55 18t11 65v167q0 114 -91 114q-50 0 -109 -51v-235q0 -50 10 -61.5t55 -16.5v-26h-217v26q51 5 62 17t11 61v207q0 47 -9 58t-51 19v23q83 16 139 41v-80l67 47q47 30 83 30q60 0 94.5 -40t34.5 -112v-193q0 -50 9.5 -61.5t53.5 -16.5v-26zM283 -44
q29 0 51 -22t22 -57q0 -79 -105 -105l-10 27q60 26 60 56t-45 41q-15 4 -15 24q0 17 12.5 26.5t29.5 9.5z" />
    <glyph glyph-name="Ncaron" unicode="&#x147;" horiz-adv-x="743" 
d="M719 650v-28q-43 -2 -62 -15t-22 -45q-6 -45 -6 -168v-403h-31l-426 524h-2v-251q0 -111 6 -169q4 -37 24 -50.5t72 -16.5v-28h-237v28q45 2 64.5 15.5t23.5 49.5q6 62 6 171v220q0 53 -3 67.5t-17 33.5q-25 32 -89 37v28h148l417 -502h3v246q0 101 -7 166
q-4 33 -24.5 46t-73.5 16v28h236zM495 806l15 -26q-79 -59 -125 -107h-22q-36 38 -126 107l16 26q71 -32 121 -62q60 35 121 62z" />
    <glyph glyph-name="ncaron" unicode="&#x148;" horiz-adv-x="547" 
d="M523 0h-208v26q44 5 55 18t11 65v167q0 114 -91 114q-50 0 -109 -51v-235q0 -50 10 -61.5t55 -16.5v-26h-217v26q51 5 62 17t11 61v207q0 47 -9 58t-51 19v23q83 16 139 41v-80l67 47q47 30 83 30q60 0 94.5 -40t34.5 -112v-193q0 -50 9.5 -61.5t53.5 -16.5v-26zM361 675
l24 -17q-49 -68 -101 -163h-24q-47 88 -100 163l25 17q45 -43 87 -97q54 64 89 97z" />
    <glyph glyph-name="napostrophe" unicode="&#x149;" horiz-adv-x="547" 
d="M54 712q34 0 61.5 -26t27.5 -68q0 -45 -36 -74.5t-86 -41.5l-8 23q69 28 69 76q0 22 -17 37t-40 19q-12 2 -12 18q0 17 13.5 27t27.5 10zM523 0h-208v26q44 5 55 18t11 65v167q0 114 -91 114q-50 0 -109 -51v-235q0 -50 10 -61.5t55 -16.5v-26h-217v26q51 5 62 17t11 61
v207q0 47 -9 58t-51 19v23q83 16 139 41v-80l67 47q47 30 83 30q60 0 94.5 -40t34.5 -112v-193q0 -50 9.5 -61.5t53.5 -16.5v-26z" />
    <glyph glyph-name="Eng" unicode="&#x14a;" horiz-adv-x="736" 
d="M712 650v-28q-43 -2 -61.5 -14.5t-22.5 -44.5q-6 -62 -6 -174l1 -287q0 -185 -37 -249q-35 -65 -92 -65q-17 0 -31 16t-14 36t14 20q3 0 15.5 -2.5t23.5 -2.5q31 0 53.5 35t23.5 119l-406 503h-2v-244q0 -115 6 -173q4 -38 24 -51t72 -16v-28h-238v28q45 2 64 15.5
t23 49.5q7 54 7 175v211q0 54 -3 71t-17 35q-25 32 -89 37v28h148l410 -499h3v238q0 106 -7 171q-4 34 -25 46.5t-74 15.5v28h237z" />
    <glyph glyph-name="eng" unicode="&#x14b;" horiz-adv-x="541" 
d="M180 452v-80q32 24 68 47q44 30 82 30q60 0 94.5 -40t34.5 -111v-178q0 -86 -16 -145q-17 -60 -54 -105q-46 -61 -90 -61q-14 0 -27 15.5t-13 32.5q0 20 13 20q5 0 22.5 -5t27.5 -5q25 0 38 19q20 34 20 146v242q0 115 -90 115q-52 0 -110 -52v-232q0 -50 10.5 -62.5
t57.5 -16.5v-26h-220v26q50 5 61.5 17t11.5 62v204q0 49 -9 60.5t-52 19.5v22q82 15 140 41z" />
    <glyph glyph-name="Omacron" unicode="&#x14c;" horiz-adv-x="747" 
d="M380 665q132 0 227.5 -93t95.5 -239q0 -158 -96 -253t-238 -95q-137 0 -231 95t-94 238q0 142 92.5 244.5t243.5 102.5zM360 629q-89 0 -151.5 -74.5t-62.5 -208.5q0 -141 69 -233t175 -92q89 0 150 74t61 211q0 152 -69 237.5t-172 85.5zM486 717h-223v52h223v-52z" />
    <glyph glyph-name="omacron" unicode="&#x14d;" horiz-adv-x="510" 
d="M256 449q92 0 154.5 -64.5t62.5 -158.5q0 -112 -67 -175t-150 -63q-98 0 -158.5 66.5t-60.5 154.5q0 59 21 106.5t54.5 75.5t70.5 43t73 15zM246 416q-49 0 -82.5 -47t-33.5 -128q0 -96 38 -158t99 -62q51 0 82 43.5t31 139.5q0 92 -35.5 152t-98.5 60zM365 548h-219v55
h219v-55z" />
    <glyph glyph-name="Obreve" unicode="&#x14e;" horiz-adv-x="747" 
d="M380 665q132 0 227.5 -93t95.5 -239q0 -158 -96 -253t-238 -95q-137 0 -231 95t-94 238q0 142 92.5 244.5t243.5 102.5zM360 629q-89 0 -151.5 -74.5t-62.5 -208.5q0 -141 69 -233t175 -92q89 0 150 74t61 211q0 152 -69 237.5t-172 85.5zM454 819h30q-1 -58 -32.5 -88
t-84.5 -30t-84.5 30t-32.5 88h30q16 -61 87 -61t87 61z" />
    <glyph glyph-name="obreve" unicode="&#x14f;" horiz-adv-x="510" 
d="M256 449q92 0 154.5 -64.5t62.5 -158.5q0 -112 -67 -175t-150 -63q-98 0 -158.5 66.5t-60.5 154.5q0 59 21 106.5t54.5 75.5t70.5 43t73 15zM246 416q-49 0 -82.5 -47t-33.5 -128q0 -96 38 -158t99 -62q51 0 82 43.5t31 139.5q0 92 -35.5 152t-98.5 60zM330 648h30
q0 -73 -31 -105t-81 -32q-49 0 -79.5 32t-30.5 105h30q11 -79 81 -79t81 79z" />
    <glyph glyph-name="Ohungarumlaut" unicode="&#x150;" horiz-adv-x="747" 
d="M380 665q132 0 227.5 -93t95.5 -239q0 -158 -96 -253t-238 -95q-137 0 -231 95t-94 238q0 142 92.5 244.5t243.5 102.5zM360 629q-89 0 -151.5 -74.5t-62.5 -208.5q0 -141 69 -233t175 -92q89 0 150 74t61 211q0 152 -69 237.5t-172 85.5zM549 797l-98 -112l-25 14
q46 114 50 123q14 1 38 -3.5t34 -10.5zM406 796l-98 -112l-25 15q11 25 29 69.5t22 52.5q14 1 38 -3.5t34 -9.5v-12z" />
    <glyph glyph-name="ohungarumlaut" unicode="&#x151;" horiz-adv-x="510" 
d="M256 449q92 0 154.5 -64.5t62.5 -158.5q0 -112 -67 -175t-150 -63q-98 0 -158.5 66.5t-60.5 154.5q0 59 21 106.5t54.5 75.5t70.5 43t73 15zM246 416q-49 0 -82.5 -47t-33.5 -128q0 -96 38 -158t99 -62q51 0 82 43.5t31 139.5q0 92 -35.5 152t-98.5 60zM183 494l-27 9
l45 161q8 3 37.5 8t39.5 4l2 -10zM321 494l-27 9l45 161q8 3 37.5 8t39.5 4l2 -10z" />
    <glyph glyph-name="OE" unicode="&#x152;" horiz-adv-x="973" 
d="M921 161l30 -4q-19 -100 -36 -157h-306q-57 0 -102 -4q-75 -7 -101 -7q-174 0 -267.5 95.5t-93.5 232.5q0 154 109 248.5t273 95.5q21 0 56 -3t40 -3q57 -5 93 -5h275q3 -72 10 -142l-30 -3q-13 57 -31 83q-11 15 -35 21t-77 6h-78q-22 0 -27 -4.5t-5 -26.5v-227h99
q44 0 62.5 6t25.5 19t13 48h30v-190h-30q-10 53 -24.5 65t-76.5 12h-99v-184q0 -69 24 -85q20 -13 104 -13q57 0 83 6.5t43 25.5q23 26 49 94zM534 110v436q0 49 -18 59q-35 21 -100 21q-126 0 -197 -80t-72 -216q0 -61 15 -114t46 -97t84.5 -69.5t124.5 -25.5q51 0 82 14
q20 10 27.5 25t7.5 47z" />
    <glyph glyph-name="oe" unicode="&#x153;" horiz-adv-x="770" 
d="M722 106l15 -22q-38 -52 -83 -74t-78 -22q-52 0 -95 23.5t-67 63.5q-31 -42 -74.5 -64.5t-88.5 -22.5q-96 0 -155 67t-59 153q0 59 21.5 107t55 76t69.5 43t69 15q55 0 99.5 -26.5t69.5 -73.5q28 44 75 72t95 28q63 0 108 -45.5t45 -105.5q0 -18 -4.5 -24.5t-17.5 -9.5
q-46 -10 -269 -17q-1 -97 45 -144.5t111 -47.5q55 0 113 51zM566 412q-38 0 -69 -33.5t-38 -92.5q20 0 55.5 0.5t66 1t57.5 1.5q20 0 20 24q1 42 -25 70.5t-67 28.5zM244 416q-48 0 -80.5 -47.5t-32.5 -127.5q0 -98 36.5 -158.5t98.5 -60.5q47 0 78.5 45t31.5 140
q0 92 -34.5 150.5t-97.5 58.5z" />
    <glyph glyph-name="Racute" unicode="&#x154;" horiz-adv-x="621" 
d="M631 18l-4 -26q-23 0 -35 1q-57 3 -93 23t-69 68q-21 30 -101 160q-13 22 -31 31t-55 9h-32v-159q0 -63 14 -77.5t75 -19.5v-28h-263v28q62 5 76.5 19.5t14.5 77.5v402q0 62 -13 76t-73 19v28h248q108 0 160 -34q66 -43 66 -131q0 -116 -127 -171q26 -51 89 -145
q45 -65 81 -104q33 -36 72 -47zM211 317h48q74 0 109 28q55 42 55 124q0 76 -42 112t-105 36q-41 0 -54 -10q-11 -8 -11 -44v-246zM432 756l-2 -8l-185 -64l-12 25l157 102q8 -1 24 -22.5t18 -32.5z" />
    <glyph glyph-name="racute" unicode="&#x155;" horiz-adv-x="371" 
d="M181 343h2q64 106 121 106q24 0 41 -15.5t17 -34.5q0 -34 -32 -49q-18 -7 -27 2q-20 21 -42 21q-20 0 -42 -22.5t-38 -63.5v-183q0 -50 12.5 -62t69.5 -16v-26h-230v26q47 5 58 17t11 61v207q0 49 -9.5 60.5t-52.5 17.5v22q75 12 141 41v-109zM201 493l-26 13
q17 38 67 159q7 3 40 7t41 2l3 -9z" />
    <glyph glyph-name="uni0156" unicode="&#x156;" horiz-adv-x="621" 
d="M631 18l-4 -26q-23 0 -35 1q-57 3 -93 23t-69 68q-21 30 -101 160q-13 22 -31 31t-55 9h-32v-159q0 -63 14 -77.5t75 -19.5v-28h-263v28q62 5 76.5 19.5t14.5 77.5v402q0 62 -13 76t-73 19v28h248q108 0 160 -34q66 -43 66 -131q0 -116 -127 -171q26 -51 89 -145
q45 -65 81 -104q33 -36 72 -47zM211 317h48q74 0 109 28q55 42 55 124q0 76 -42 112t-105 36q-41 0 -54 -10q-11 -8 -11 -44v-246zM341 -22q30 0 52 -22.5t22 -56.5q0 -78 -106 -106l-10 28q61 26 61 56t-46 41q-14 4 -14 23q0 18 12.5 27.5t28.5 9.5z" />
    <glyph glyph-name="uni0157" unicode="&#x157;" horiz-adv-x="371" 
d="M181 343h2q64 106 121 106q24 0 41 -15.5t17 -34.5q0 -34 -32 -49q-18 -7 -27 2q-20 21 -42 21q-20 0 -42 -22.5t-38 -63.5v-183q0 -50 12.5 -62t69.5 -16v-26h-230v26q47 5 58 17t11 61v207q0 49 -9.5 60.5t-52.5 17.5v22q75 12 141 41v-109zM140 -38q29 0 51 -22
t22 -56q0 -80 -106 -106l-9 27q60 26 60 56t-45 41q-15 4 -15 24q0 17 12.5 26.5t29.5 9.5z" />
    <glyph glyph-name="Rcaron" unicode="&#x158;" horiz-adv-x="621" 
d="M631 18l-4 -26q-23 0 -35 1q-57 3 -93 23t-69 68q-21 30 -101 160q-13 22 -31 31t-55 9h-32v-159q0 -63 14 -77.5t75 -19.5v-28h-263v28q62 5 76.5 19.5t14.5 77.5v402q0 62 -13 76t-73 19v28h248q108 0 160 -34q66 -43 66 -131q0 -116 -127 -171q26 -51 89 -145
q45 -65 81 -104q33 -36 72 -47zM211 317h48q74 0 109 28q55 42 55 124q0 76 -42 112t-105 36q-41 0 -54 -10q-11 -8 -11 -44v-246zM405 821l15 -26q-79 -59 -125 -107h-22q-40 41 -126 107l15 26q70 -31 122 -62q54 32 121 62z" />
    <glyph glyph-name="rcaron" unicode="&#x159;" horiz-adv-x="371" 
d="M181 343h2q64 106 121 106q24 0 41 -15.5t17 -34.5q0 -34 -32 -49q-18 -7 -27 2q-20 21 -42 21q-20 0 -42 -22.5t-38 -63.5v-183q0 -50 12.5 -62t69.5 -16v-26h-230v26q47 5 58 17t11 61v207q0 49 -9.5 60.5t-52.5 17.5v22q75 12 141 41v-109zM296 675l24 -17
q-52 -72 -100 -163h-25q-47 88 -100 163l25 17q51 -49 87 -97q54 64 89 97z" />
    <glyph glyph-name="Sacute" unicode="&#x15a;" horiz-adv-x="474" 
d="M409 504l-29 -6q-8 29 -16 48.5t-23 41t-38 32.5t-54 11q-54 0 -82.5 -32.5t-28.5 -77.5q0 -51 30 -82t97 -66q33 -17 49 -26t44.5 -29t42.5 -37.5t25.5 -46t11.5 -60.5q0 -80 -62 -134.5t-160 -54.5q-44 0 -98 15q-32 11 -49 21q-11 30 -27 155l29 7q7 -27 18.5 -52
t30.5 -51.5t49 -42.5t66 -16q56 0 88 32.5t32 87.5q0 51 -31.5 82t-98.5 67q-26 14 -35 20l-35 20l-37 30l-28 32l-23 44l-7 51q0 75 56 126.5t150 51.5q53 0 126 -23zM381 764l-2 -8l-185 -64l-12 25l157 102q8 -1 24 -22.5t18 -32.5z" />
    <glyph glyph-name="sacute" unicode="&#x15b;" horiz-adv-x="367" 
d="M320 325l-26 -6q-32 99 -103 99q-28 0 -46.5 -20t-18.5 -49q0 -31 22.5 -50.5t62.5 -36.5q62 -26 94 -57t32 -79q0 -64 -50 -101t-115 -37q-35 0 -67.5 10.5t-47.5 23.5q-5 10 -10.5 50.5t-5.5 67.5l26 5q14 -53 47 -88.5t76 -35.5q29 0 50 19.5t21 50.5t-19.5 51.5
t-59.5 39.5q-29 13 -46 23t-38 27t-31 39t-10 49q0 54 42.5 91.5t109.5 37.5q44 0 89 -17q14 -40 22 -107zM179 493l-26 13q17 38 67 159q8 3 40.5 7t40.5 2l3 -9z" />
    <glyph glyph-name="Scircumflex" unicode="&#x15c;" horiz-adv-x="474" 
d="M409 504l-29 -6q-8 29 -16 48.5t-23 41t-38 32.5t-54 11q-54 0 -82.5 -32.5t-28.5 -77.5q0 -51 30 -82t97 -66q33 -17 49 -26t44.5 -29t42.5 -37.5t25.5 -46t11.5 -60.5q0 -80 -62 -134.5t-160 -54.5q-44 0 -98 15q-32 11 -49 21q-11 30 -27 155l29 7q7 -27 18.5 -52
t30.5 -51.5t49 -42.5t66 -16q56 0 88 32.5t32 87.5q0 51 -31.5 82t-98.5 67q-26 14 -35 20l-35 20l-37 30l-28 32l-23 44l-7 51q0 75 56 126.5t150 51.5q53 0 126 -23zM386 715l-16 -25q-54 24 -121 62q-79 -45 -119 -62l-17 25q93 71 126 107h22q36 -39 125 -107z" />
    <glyph glyph-name="scircumflex" unicode="&#x15d;" horiz-adv-x="367" 
d="M320 325l-26 -6q-32 99 -103 99q-28 0 -46.5 -20t-18.5 -49q0 -31 22.5 -50.5t62.5 -36.5q62 -26 94 -57t32 -79q0 -64 -50 -101t-115 -37q-35 0 -67.5 10.5t-47.5 23.5q-5 10 -10.5 50.5t-5.5 67.5l26 5q14 -53 47 -88.5t76 -35.5q29 0 50 19.5t21 50.5t-19.5 51.5
t-59.5 39.5q-29 13 -46 23t-38 27t-31 39t-10 49q0 54 42.5 91.5t109.5 37.5q44 0 89 -17q14 -40 22 -107zM301 508l-25 -17q-40 38 -87 97q-47 -58 -89 -97l-24 17q49 68 101 163h25q47 -89 99 -163z" />
    <glyph glyph-name="uni015E" unicode="&#x15e;" horiz-adv-x="477" 
d="M411 502l-29 -4q-16 61 -44.5 97t-86.5 36q-52 0 -81 -31.5t-29 -75.5q0 -52 30 -84t97 -65q38 -18 60.5 -31.5t51.5 -38t43.5 -56.5t14.5 -73q0 -68 -43 -117.5t-116 -64.5l-14 -22q-8 -13 -6.5 -21t12.5 -20q39 -38 39 -68t-30.5 -57t-82.5 -43l-12 26q59 26 61 59
q0 16 -24 38q-19 19 -22 31t10 33l28 37q-6 -2 -18 -2q-52 1 -101 15q-24 8 -52 22q-13 37 -27 155l28 6q8 -27 19.5 -51.5t31 -51.5t51 -43t69.5 -16q54 0 85.5 32.5t31.5 87.5q0 37 -19.5 66.5t-42.5 45.5t-66 39l-42 22l-42 28l-42 38l-28 47l-12 61q0 74 56.5 125.5
t150.5 51.5q51 0 124 -23q2 -20 9 -69z" />
    <glyph glyph-name="uni015F" unicode="&#x15f;" horiz-adv-x="366" 
d="M320 326l-26 -8q-32 100 -103 100q-29 0 -47 -19t-18 -48q0 -51 85 -87q62 -27 94 -58.5t32 -79.5q0 -51 -31 -84.5t-80 -45.5l-17 -24q-9 -14 -8 -21t14 -20q36 -33 36 -66q0 -30 -29.5 -56.5t-79.5 -42.5l-10 27q56 26 58 57q0 15 -23 38q-20 18 -22.5 30.5t10.5 30.5
l31 40q-5 -1 -16 -1q-34 0 -67.5 11.5t-48.5 24.5q-5 13 -10 52.5t-5 66.5l27 5q14 -54 47.5 -90.5t77.5 -36.5q28 0 49 18.5t21 50.5t-19.5 53.5t-60.5 40.5q-57 25 -91 55.5t-34 80.5q0 53 42.5 91t110.5 38q44 0 89 -17q17 -50 22 -106z" />
    <glyph glyph-name="Scaron" unicode="&#x160;" horiz-adv-x="474" 
d="M409 504l-29 -6q-8 29 -16 48.5t-23 41t-38 32.5t-54 11q-54 0 -82.5 -32.5t-28.5 -77.5q0 -51 30 -82t97 -66q33 -17 49 -26t44.5 -29t42.5 -37.5t25.5 -46t11.5 -60.5q0 -80 -62 -134.5t-160 -54.5q-44 0 -98 15q-32 11 -49 21q-11 30 -27 155l29 7q7 -27 18.5 -52
t30.5 -51.5t49 -42.5t66 -16q56 0 88 32.5t32 87.5q0 51 -31.5 82t-98.5 67q-26 14 -35 20l-35 20l-37 30l-28 32l-23 44l-7 51q0 75 56 126.5t150 51.5q53 0 126 -23zM369 830l16 -26q-86 -66 -126 -108h-22q-37 39 -126 108l16 26q75 -34 121 -62q60 35 121 62z" />
    <glyph glyph-name="scaron" unicode="&#x161;" horiz-adv-x="367" 
d="M320 325l-26 -6q-32 99 -103 99q-28 0 -46.5 -20t-18.5 -49q0 -31 22.5 -50.5t62.5 -36.5q62 -26 94 -57t32 -79q0 -64 -50 -101t-115 -37q-35 0 -67.5 10.5t-47.5 23.5q-5 10 -10.5 50.5t-5.5 67.5l26 5q14 -53 47 -88.5t76 -35.5q29 0 50 19.5t21 50.5t-19.5 51.5
t-59.5 39.5q-29 13 -46 23t-38 27t-31 39t-10 49q0 54 42.5 91.5t109.5 37.5q44 0 89 -17q14 -40 22 -107zM279 675l24 -17q-52 -72 -100 -163h-25q-47 88 -100 163l25 17q51 -49 87 -97q54 64 89 97z" />
    <glyph glyph-name="uni0162" unicode="&#x162;" horiz-adv-x="617" 
d="M561 675h21q0 -61 10 -177l-29 -3q-15 67 -32 89q-12 19 -32.5 25t-75.5 6h-71v-492q0 -60 16 -75.5t87 -19.5v-28h-108l-22 -28q-9 -13 -8 -20.5t14 -20.5q38 -38 38 -69q0 -65 -114 -101l-12 27q59 25 59 60q0 16 -22 38q-19 19 -22 31.5t11 32.5l37 50h-138v28
q68 4 83.5 19.5t15.5 75.5v492h-62q-60 0 -83 -6.5t-33 -24.5q-13 -18 -32 -89h-29q10 116 12 180h20q10 -16 21 -20.5t34 -4.5h395q19 0 28.5 5t22.5 20z" />
    <glyph glyph-name="uni0163" unicode="&#x163;" horiz-adv-x="305" 
d="M211 -7l-16 -20q-9 -13 -8 -21t13 -20q39 -39 39 -69q0 -31 -30.5 -58t-83.5 -43l-12 26q60 26 60 60q0 16 -23 39q-19 18 -22 30.5t11 31.5l30 40q-79 12 -79 118v291h-69l-4 10l27 29h46v73l65 66l14 -2v-137h113q7 -7 5 -20.5t-11 -18.5h-107v-257q0 -96 58 -96
q28 0 62 17l9 -26l-68 -35q-18 -7 -19 -8z" />
    <glyph glyph-name="Tcaron" unicode="&#x164;" horiz-adv-x="617" 
d="M592 498l-29 -3q-15 67 -32 89q-12 19 -32.5 25t-75.5 6h-71v-492q0 -60 16 -75.5t87 -19.5v-28h-287v28q68 4 83.5 19.5t15.5 75.5v492h-62q-60 0 -83 -6.5t-33 -24.5q-13 -18 -32 -89h-29q10 116 12 180h20q10 -16 21 -20.5t34 -4.5h395q19 0 28.5 5t22.5 20h21
q0 -61 10 -177zM430 821l16 -26q-79 -57 -126 -107h-22q-36 38 -126 107l16 26q71 -32 121 -62q60 35 121 62z" />
    <glyph glyph-name="tcaron" unicode="&#x165;" horiz-adv-x="305" 
d="M298 36l-68 -35q-25 -13 -42 -13q-98 0 -98 119v291h-69l-4 10l27 29h46v73l65 66l14 -2v-137h113q7 -7 5 -20.5t-11 -18.5h-107v-257q0 -96 58 -96q28 0 62 17zM271 695q25 0 43 -22.5t18 -57.5q0 -79 -86 -105l-10 27q45 23 45 57q0 29 -32 39q-13 4 -13 25
q0 17 10.5 27t24.5 10z" />
    <glyph glyph-name="Tbar" unicode="&#x166;" horiz-adv-x="613" 
d="M588 499l-30 -3q-14 64 -29 88q-13 18 -36 24.5t-79 6.5h-64v-265h149v-39h-149v-185q0 -62 16 -78.5t86 -20.5v-27h-286v27q68 4 83.5 20.5t15.5 78.5v185h-147v39h147v265h-50q-68 0 -92.5 -6.5t-34.5 -24.5q-13 -21 -30 -88h-30q10 117 12 179h20q11 -17 20.5 -21
t31.5 -4h397q19 0 27 4.5t20 20.5h22q0 -81 10 -176z" />
    <glyph glyph-name="tbar" unicode="&#x167;" horiz-adv-x="303" 
d="M299 37l-71 -37q-23 -12 -40 -12q-98 0 -98 119v118h-67v36h67v136h-69l-4 11l28 29h45v73l65 66l14 -2v-137h113q8 -7 6 -20.5t-12 -19.5h-107v-136h101v-36h-101v-84q0 -96 59 -96q29 0 61 17z" />
    <glyph glyph-name="Utilde" unicode="&#x168;" horiz-adv-x="736" 
d="M716 650v-28q-45 -3 -64.5 -16t-23.5 -43q-5 -45 -5 -162v-83q0 -184 -76 -264q-66 -69 -179 -69q-98 0 -160 48q-88 67 -88 238v250q0 66 -13.5 81t-73.5 20v28h259v-28q-60 -4 -73.5 -19t-13.5 -82v-228q0 -122 48 -187.5t140 -65.5q189 0 189 285v76q0 111 -7 165
q-4 29 -24 40.5t-73 15.5v28h238zM339 788q21 0 62 -19q34 -16 54 -16q26 0 46 43l25 -14q-27 -85 -82 -85q-23 0 -70 22q-28 14 -44 14q-24 0 -48 -44l-24 17q33 82 81 82z" />
    <glyph glyph-name="utilde" unicode="&#x169;" horiz-adv-x="531" 
d="M518 49v-25q-55 -8 -147 -36l-6 6v71q-54 -40 -74 -52q-43 -25 -77 -25q-55 0 -89.5 36.5t-34.5 112.5v196q0 41 -9 51.5t-52 18.5v23q71 5 143 18q-3 -31 -3 -146v-134q0 -113 88 -113q59 0 108 48v233q0 42 -12 52.5t-66 18.5v23q97 6 157 18v-334q0 -37 8.5 -47
t37.5 -12zM161 521l-26 16q29 90 80 90q21 0 58 -19q38 -19 53 -19q24 0 44 45l25 -14q-27 -90 -79 -90q-23 0 -66 24q-27 15 -46 15q-24 0 -43 -48z" />
    <glyph glyph-name="Umacron" unicode="&#x16a;" horiz-adv-x="736" 
d="M716 650v-28q-45 -3 -64.5 -16t-23.5 -43q-5 -45 -5 -162v-83q0 -184 -76 -264q-66 -69 -179 -69q-98 0 -160 48q-88 67 -88 238v250q0 66 -13.5 81t-73.5 20v28h259v-28q-60 -4 -73.5 -19t-13.5 -82v-228q0 -122 48 -187.5t140 -65.5q189 0 189 285v76q0 111 -7 165
q-4 29 -24 40.5t-73 15.5v28h238zM494 717h-223v52h223v-52z" />
    <glyph glyph-name="umacron" unicode="&#x16b;" horiz-adv-x="531" 
d="M518 49v-25q-55 -8 -147 -36l-6 6v71q-54 -40 -74 -52q-43 -25 -77 -25q-55 0 -89.5 36.5t-34.5 112.5v196q0 41 -9 51.5t-52 18.5v23q71 5 143 18q-3 -31 -3 -146v-134q0 -113 88 -113q59 0 108 48v233q0 42 -12 52.5t-66 18.5v23q97 6 157 18v-334q0 -37 8.5 -47
t37.5 -12zM375 548h-219v55h219v-55z" />
    <glyph glyph-name="Ubreve" unicode="&#x16c;" horiz-adv-x="736" 
d="M716 650v-28q-45 -3 -64.5 -16t-23.5 -43q-5 -45 -5 -162v-83q0 -184 -76 -264q-66 -69 -179 -69q-98 0 -160 48q-88 67 -88 238v250q0 66 -13.5 81t-73.5 20v28h259v-28q-60 -4 -73.5 -19t-13.5 -82v-228q0 -122 48 -187.5t140 -65.5q189 0 189 285v76q0 111 -7 165
q-4 29 -24 40.5t-73 15.5v28h238zM473 804h30q-1 -58 -32.5 -88t-84.5 -30t-84.5 30t-32.5 88h30q16 -61 87 -61t87 61z" />
    <glyph glyph-name="ubreve" unicode="&#x16d;" horiz-adv-x="531" 
d="M518 49v-25q-55 -8 -147 -36l-6 6v71q-54 -40 -74 -52q-43 -25 -77 -25q-55 0 -89.5 36.5t-34.5 112.5v196q0 41 -9 51.5t-52 18.5v23q71 5 143 18q-3 -31 -3 -146v-134q0 -113 88 -113q59 0 108 48v233q0 42 -12 52.5t-66 18.5v23q97 6 157 18v-334q0 -37 8.5 -47
t37.5 -12zM341 648h30q0 -73 -31 -105t-81 -32q-49 0 -79.5 32t-30.5 105h30q11 -79 81 -79t81 79z" />
    <glyph glyph-name="Uring" unicode="&#x16e;" horiz-adv-x="736" 
d="M716 650v-28q-45 -3 -64.5 -16t-23.5 -43q-5 -45 -5 -162v-83q0 -184 -76 -264q-66 -69 -179 -69q-98 0 -160 48q-88 67 -88 238v250q0 66 -13.5 81t-73.5 20v28h259v-28q-60 -4 -73.5 -19t-13.5 -82v-228q0 -122 48 -187.5t140 -65.5q189 0 189 285v76q0 111 -7 165
q-4 29 -24 40.5t-73 15.5v28h238zM387 843q35 0 62 -23.5t27 -60.5q0 -38 -27 -61.5t-62 -23.5t-61.5 23.5t-26.5 61.5q0 37 26.5 60.5t61.5 23.5zM387 811q-19 0 -31.5 -14.5t-12.5 -37.5t12.5 -38.5t31.5 -15.5q20 0 32 15t12 39q0 23 -12 37.5t-32 14.5z" />
    <glyph glyph-name="uring" unicode="&#x16f;" horiz-adv-x="531" 
d="M518 49v-25q-55 -8 -147 -36l-6 6v71q-54 -40 -74 -52q-43 -25 -77 -25q-55 0 -89.5 36.5t-34.5 112.5v196q0 41 -9 51.5t-52 18.5v23q71 5 143 18q-3 -31 -3 -146v-134q0 -113 88 -113q59 0 108 48v233q0 42 -12 52.5t-66 18.5v23q97 6 157 18v-334q0 -37 8.5 -47
t37.5 -12zM265 499q-35 0 -62 24t-27 62q0 37 27 60t63 23q34 0 61 -23t27 -60q0 -38 -27 -62t-62 -24zM266 530q20 0 32 15.5t12 39.5q0 23 -12 37.5t-33 14.5q-19 0 -31 -14.5t-12 -37.5q0 -24 12.5 -39.5t31.5 -15.5z" />
    <glyph glyph-name="Uhungarumlaut" unicode="&#x170;" horiz-adv-x="736" 
d="M716 650v-28q-45 -3 -64.5 -16t-23.5 -43q-5 -45 -5 -162v-83q0 -184 -76 -264q-66 -69 -179 -69q-98 0 -160 48q-88 67 -88 238v250q0 66 -13.5 81t-73.5 20v28h259v-28q-60 -4 -73.5 -19t-13.5 -82v-228q0 -122 48 -187.5t140 -65.5q189 0 189 285v76q0 111 -7 165
q-4 29 -24 40.5t-73 15.5v28h238zM549 796l-98 -112l-25 14q12 28 50 123q36 3 72 -13zM407 796l-98 -112l-25 14l51 123q14 1 38 -4t33 -10z" />
    <glyph glyph-name="uhungarumlaut" unicode="&#x171;" horiz-adv-x="531" 
d="M518 49v-25q-55 -8 -147 -36l-6 6v71q-54 -40 -74 -52q-43 -25 -77 -25q-55 0 -89.5 36.5t-34.5 112.5v196q0 41 -9 51.5t-52 18.5v23q71 5 143 18q-3 -31 -3 -146v-134q0 -113 88 -113q59 0 108 48v233q0 42 -12 52.5t-66 18.5v23q97 6 157 18v-334q0 -37 8.5 -47
t37.5 -12zM193 494l-27 9l45 161q8 3 37.5 8t39.5 4l3 -10zM331 494l-27 9l45 161q7 3 37.5 8t39.5 4l3 -10z" />
    <glyph glyph-name="Uogonek" unicode="&#x172;" horiz-adv-x="733" 
d="M713 650v-27q-45 -4 -64 -16.5t-22 -43.5q-7 -49 -7 -164v-80q0 -184 -75 -264q-42 -44 -109 -59q-27 -27 -44 -63t-17 -62q0 -27 15 -39.5t38 -12.5q20 0 48 12l7 -25l-57 -34q-17 -10 -36 -10q-41 0 -62 22.5t-21 53.5q0 68 88 151q-116 -9 -187 45q-88 67 -88 238v246
q0 68 -13.5 83.5t-73.5 21.5v27h259v-27q-60 -4 -73.5 -20t-13.5 -85v-223q0 -123 46.5 -188.5t139.5 -65.5q101 0 144 74.5t43 211.5v72q0 113 -7 167q-5 29 -24.5 41t-71.5 16v27h238z" />
    <glyph glyph-name="uogonek" unicode="&#x173;" horiz-adv-x="531" 
d="M518 49v-25q-26 -4 -39 -7q-41 -30 -71.5 -72.5t-30.5 -77.5q0 -21 14 -33t36 -12q23 0 47 11l8 -25l-57 -33q-17 -11 -35 -11q-39 0 -60 21.5t-21 54.5q0 62 109 162l-47 -14l-6 6v71q-54 -40 -74 -52q-43 -25 -77 -25q-55 0 -89.5 36.5t-34.5 112.5v196q0 41 -9 51.5
t-52 18.5v23q71 5 143 18q-3 -31 -3 -146v-134q0 -113 88 -113q59 0 108 48v233q0 42 -12 52.5t-66 18.5v23q97 6 157 18v-334q0 -37 8.5 -47t37.5 -12z" />
    <glyph glyph-name="Wcircumflex" unicode="&#x174;" horiz-adv-x="971" 
d="M956 650v-28q-52 -7 -69 -22.5t-39 -77.5q-47 -132 -165 -532h-31l-175 498h-2l-163 -498h-31l-164 534q-18 60 -35.5 76t-65.5 22v28h243v-28q-53 -7 -63 -18.5t3 -49.5l122 -412h2l162 498h29l175 -498h2q80 253 113 400q12 45 0.5 59t-69.5 21v28h221zM635 704
l-16 -25q-44 19 -120 62q-109 -57 -120 -62l-16 25q86 66 126 107h21q39 -41 125 -107z" />
    <glyph glyph-name="wcircumflex" unicode="&#x175;" horiz-adv-x="685" 
d="M696 437v-25q-37 -6 -50.5 -19t-29.5 -56q-21 -55 -120 -348h-28l-70 179l-52 132q-116 -305 -118 -311h-29q-54 178 -115 357q-13 39 -26 50t-49 16v25h207v-25q-45 -8 -53 -17.5t3 -43.5l73 -233h2l116 314h26q43 -121 120 -317h2q51 159 68 230q10 39 0.5 49.5
t-58.5 17.5v25h181zM475 508l-24 -17q-44 42 -88 97q-43 -55 -88 -97l-24 17q56 80 100 163h25q47 -89 99 -163z" />
    <glyph glyph-name="Ycircumflex" unicode="&#x176;" horiz-adv-x="634" 
d="M620 650v-28q-51 -6 -70 -19t-49 -60q-66 -106 -127 -219q-16 -32 -16 -63v-136q0 -63 15.5 -77.5t84.5 -19.5v-28h-283v28q67 5 82.5 19.5t15.5 77.5v133q0 22 -21 59l-126 220q-31 52 -49 66.5t-62 18.5v28h239v-28q-50 -6 -58.5 -18t8.5 -36q20 -39 134 -237
q87 155 119 225q18 37 9 48.5t-67 17.5v28h221zM460 709l-16 -25q-57 24 -121 62q-79 -45 -120 -62l-16 25q86 66 126 107h21q36 -38 126 -107z" />
    <glyph glyph-name="ycircumflex" unicode="&#x177;" horiz-adv-x="459" 
d="M478 437v-25q-40 -6 -54.5 -18t-34.5 -55q-11 -23 -26 -60l-43 -107l-56 -134q-86 -205 -103 -271q-6 -24 -32 -24q-21 0 -39 15t-18 33q0 19 26 36q41 27 74 89q23 42 31 69q7 22 -1 45q-70 199 -115 306q-16 43 -31 56.5t-55 19.5v25h203v-25q-34 -6 -41 -16.5t3 -38.5
l91 -251q47 115 92 249q9 29 -0.5 40t-51.5 17v25h181zM356 508l-24 -17q-44 42 -88 97q-43 -55 -88 -97l-24 17q56 80 100 163h25q47 -89 99 -163z" />
    <glyph glyph-name="Ydieresis" unicode="&#x178;" horiz-adv-x="634" 
d="M620 650v-28q-51 -6 -70 -19t-49 -60q-66 -106 -127 -219q-16 -32 -16 -63v-136q0 -63 15.5 -77.5t84.5 -19.5v-28h-283v28q67 5 82.5 19.5t15.5 77.5v133q0 22 -21 59l-126 220q-31 52 -49 66.5t-62 18.5v28h239v-28q-50 -6 -58.5 -18t8.5 -36q20 -39 134 -237
q87 155 119 225q18 37 9 48.5t-67 17.5v28h221zM422 794q20 0 33.5 -14t13.5 -35q0 -20 -13.5 -34t-33.5 -14t-34 14.5t-14 33.5q0 21 14 35t34 14zM231 794q20 0 34 -14t14 -36q0 -19 -14 -33.5t-34 -14.5q-19 0 -33 14.5t-14 33.5q0 22 13.5 36t33.5 14z" />
    <glyph glyph-name="Zacute" unicode="&#x179;" horiz-adv-x="603" 
d="M561 176l30 -6q-3 -12 -11 -48l-14 -70l-12 -52h-517l-8 15l421 599h-174q-77 0 -102 -7t-39 -29q-20 -29 -34 -87h-30q11 142 12 184h24q9 -16 19 -20.5t34 -4.5h399l7 -14l-413 -594q49 -6 163 -6q94 0 132 7.5t59 29.5q27 30 54 103zM473 756l-2 -8l-185 -64l-13 25
l157 102q9 -1 25 -22.5t18 -32.5z" />
    <glyph glyph-name="zacute" unicode="&#x17a;" horiz-adv-x="420" 
d="M387 138l26 -12l-24 -65l-22 -61h-330l-6 15q114 168 249 389h-89q-52 0 -71.5 -13.5t-41.5 -58.5l-14 -27l-25 9q20 68 34 145h21q8 -22 55 -22h230l6 -14l-244 -390h99q54 0 78.5 16.5t55.5 64.5zM213 493l-26 13q17 38 67 159q8 3 40.5 7t40.5 2l3 -9z" />
    <glyph glyph-name="Zdotaccent" unicode="&#x17b;" horiz-adv-x="603" 
d="M561 176l30 -6q-3 -12 -11 -48l-14 -70l-12 -52h-517l-8 15l421 599h-174q-77 0 -102 -7t-39 -29q-20 -29 -34 -87h-30q11 142 12 184h24q9 -16 19 -20.5t34 -4.5h399l7 -14l-413 -594q49 -6 163 -6q94 0 132 7.5t59 29.5q27 30 54 103zM318 807q22 0 36.5 -15t14.5 -38
q0 -21 -14.5 -36t-36.5 -15q-21 0 -36 15t-15 36q0 22 15 37.5t36 15.5z" />
    <glyph glyph-name="zdotaccent" unicode="&#x17c;" horiz-adv-x="420" 
d="M387 138l26 -12l-24 -65l-22 -61h-330l-6 15q114 168 249 389h-89q-52 0 -71.5 -13.5t-41.5 -58.5l-14 -27l-25 9q20 68 34 145h21q8 -22 55 -22h230l6 -14l-244 -390h99q54 0 78.5 16.5t55.5 64.5zM221 538q-20 0 -35.5 15t-15.5 35q0 22 15.5 37.5t36.5 15.5
q20 0 34.5 -15.5t14.5 -37.5q0 -20 -14.5 -35t-35.5 -15z" />
    <glyph glyph-name="Zcaron" unicode="&#x17d;" horiz-adv-x="603" 
d="M561 176l30 -6q-3 -12 -11 -48l-14 -70l-12 -52h-517l-8 15l421 599h-174q-77 0 -102 -7t-39 -29q-20 -29 -34 -87h-30q11 142 12 184h24q9 -16 19 -20.5t34 -4.5h399l7 -14l-413 -594q49 -6 163 -6q94 0 132 7.5t59 29.5q27 30 54 103zM439 821l16 -26
q-79 -57 -126 -107h-22q-36 38 -126 107l16 26q75 -34 121 -62q60 35 121 62z" />
    <glyph glyph-name="zcaron" unicode="&#x17e;" horiz-adv-x="420" 
d="M387 138l26 -12l-24 -65l-22 -61h-330l-6 15q114 168 249 389h-89q-52 0 -71.5 -13.5t-41.5 -58.5l-14 -27l-25 9q20 68 34 145h21q8 -22 55 -22h230l6 -14l-244 -390h99q54 0 78.5 16.5t55.5 64.5zM304 675l24 -17q-52 -72 -100 -163h-25q-47 88 -100 163l25 17
q51 -49 87 -97q54 64 89 97z" />
    <glyph glyph-name="longs" unicode="&#x17f;" horiz-adv-x="267" 
d="M55 437h47v22q0 45 10 82q20 69 77 117q52 46 111 54q51 -1 79 -33q13 -16 7 -34q-4 -12 -23 -27q-13 -8 -26 4q-40 40 -81 40q-33 0 -54 -36q-22 -39 -22 -197v-317q0 -55 10.5 -68t59.5 -18v-26h-214v26q44 5 55 17t11 61v294h-71l-3 10z" />
    <glyph glyph-name="florin" unicode="&#x192;" horiz-adv-x="480" 
d="M188 370l8 45q21 117 95 182q62 55 113 55q19 0 38.5 -14t19.5 -30q0 -14 -13.5 -30t-24.5 -10l-14 9l-18 11l-18 8l-22 4q-24 0 -40 -30q-21 -46 -39 -200h112v-37h-118l-31 -205q-14 -93 -43 -144t-73 -84q-50 -38 -87 -38q-20 0 -37.5 12.5t-17.5 24.5q0 13 13.5 31
t21.5 18q2 0 26.5 -15.5t42.5 -15.5q31 0 42 34q14 42 32 190l26 192h-89l1 37h94z" />
    <glyph glyph-name="Ohorn" unicode="&#x1a0;" horiz-adv-x="747" 
d="M359 629q-89 0 -151 -74.5t-62 -208.5q0 -141 69 -233t175 -92q89 0 150 74t61 211q0 152 -69 237.5t-173 85.5zM381 665q106 0 197 -65q17 -10 44 -10q30 0 44 12.5t14 27.5q0 14 -7.5 19.5t-33.5 8.5q-8 2 -15.5 10t-7.5 20q0 18 12.5 30.5t31.5 12.5q30 0 48 -20
t18 -60q0 -39 -28 -64.5t-74 -31.5q79 -91 79 -222q0 -158 -96 -253t-238 -95q-137 0 -231 95t-94 238q0 142 92.5 244.5t244.5 102.5z" />
    <glyph glyph-name="ohorn" unicode="&#x1a1;" horiz-adv-x="525" 
d="M245 416q-48 0 -81.5 -47t-33.5 -128q0 -96 38 -158t99 -62q51 0 82 43.5t31 139.5q0 92 -35.5 152t-99.5 60zM257 449q63 0 121 -36q20 -9 39 -9q26 0 39 9t13 20t-7 16.5t-27 9.5q-7 1 -14.5 8t-7.5 20q0 17 12.5 28t31.5 11q23 0 39 -17t16 -53q0 -35 -24.5 -57
t-65.5 -27q51 -61 51 -146q0 -112 -67 -175t-150 -63q-98 0 -158.5 66.5t-60.5 154.5q0 59 21 106.5t54.5 75.5t71 43t73.5 15z" />
    <glyph glyph-name="Uhorn" unicode="&#x1af;" horiz-adv-x="736" 
d="M478 622v28h182q59 0 59 33q0 22 -39 28q-24 6 -24 30q0 17 12.5 29t30.5 12q30 0 47 -19t17 -56q0 -64 -68 -85q-36 -10 -50 -21t-17 -39q-5 -47 -5 -161v-82q0 -184 -76 -264q-66 -69 -179 -69q-98 0 -160 48q-88 67 -88 238v249q0 66 -13.5 81t-73.5 20v28h259v-28
q-60 -4 -73.5 -19t-13.5 -82v-227q0 -122 48 -187.5t140 -65.5q189 0 189 285v75q0 111 -7 165q-4 29 -24 40.5t-73 15.5z" />
    <glyph glyph-name="uhorn" unicode="&#x1b0;" horiz-adv-x="547" 
d="M518 49v-25q-63 -9 -147 -36l-6 6v71q-54 -40 -74 -52q-43 -25 -77 -25q-55 0 -89.5 36.5t-34.5 112.5v196q0 41 -9 52t-52 18v23q71 5 143 18q-3 -31 -3 -146v-134q0 -113 88 -113q59 0 108 48v233q0 42 -11.5 53t-66.5 18v23q78 3 118 9q73 8 73 36q0 22 -36 27
q-7 1 -14.5 8t-7.5 20q0 17 12 28.5t30 11.5q26 0 42 -17t16 -54q0 -34 -22 -55.5t-54 -29.5v-300q0 -37 8.5 -47t37.5 -12z" />
    <glyph glyph-name="Aringacute" unicode="&#x1fa;" horiz-adv-x="691" 
d="M673 0h-245v28q47 6 58 16t1 39l-55 154h-213q-31 -88 -44 -129q-16 -47 -5.5 -61t67.5 -19v-28h-217v28q49 7 68 23t44 80l207 525l31 9l193 -536q24 -64 42 -80t68 -21v-28zM418 280l-88 255h-2l-94 -255h184zM345 852q36 0 62.5 -23.5t26.5 -60.5t-27 -61t-62 -24
t-61.5 24t-26.5 61t26.5 60.5t61.5 23.5zM346 820q-20 0 -32.5 -14.5t-12.5 -37.5q0 -24 12.5 -39t32.5 -15q19 0 31 15t12 39q0 23 -12 37.5t-31 14.5zM478 934l-2 -8l-185 -64l-13 25l157 102q9 -2 25 -23t18 -32z" />
    <glyph glyph-name="aringacute" unicode="&#x1fb;" horiz-adv-x="439" 
d="M433 39l-85 -51q-26 0 -47 19q-16 17 -24 45q-5 -3 -24 -16.5t-27 -18.5t-23 -13.5t-25 -12t-19 -3.5q-52 0 -86 36.5t-34 85.5q0 71 81 99q128 43 155 65v18q0 53 -23 83t-61 30q-28 0 -45 -20q-17 -17 -30 -66q-6 -23 -29 -23q-14 0 -29 13.5t-15 29.5t32 40
q79 56 150 70q49 0 82 -27q45 -37 45 -122v-186q0 -60 35 -60q18 0 36 11zM275 84v156q-12 -6 -49 -23t-41 -19q-31 -14 -46 -30.5t-15 -42.5q0 -36 22.5 -56.5t48.5 -20.5q44 2 80 36zM220 499q-36 0 -62.5 24t-26.5 62q0 37 27 60t63 23q34 0 60.5 -23t26.5 -60
q0 -38 -27 -62t-61 -24zM221 530q20 0 32 15.5t12 39.5q0 23 -12 37.5t-33 14.5q-19 0 -31.5 -14.5t-12.5 -37.5q0 -24 12.5 -39.5t32.5 -15.5zM212 690l-26 14q26 57 68 158q7 3 40 7t41 2l3 -9z" />
    <glyph glyph-name="AEacute" unicode="&#x1fc;" horiz-adv-x="869" 
d="M819 165l28 -7q-22 -112 -35 -158h-473v28q64 4 79 21.5t15 84.5v163h-177q-65 -127 -95 -195q-19 -39 -9 -53.5t66 -21.5v-27h-229v27q49 7 69.5 21t49.5 64q82 145 239 450q17 31 12 41t-43 15l-41 5v27h513q0 -44 10 -142l-30 -4q-15 60 -32 82q-13 17 -34 23t-71 6
h-83q-22 0 -27 -5t-5 -27v-248h90q66 0 82.5 12.5t26.5 64.5h30v-195h-30q-11 55 -27 67t-82 12l-90 1v-166q0 -68 24 -84q22 -12 102 -12q55 0 83 7t45 27q25 30 49 96zM433 336v274q-12 0 -28 -20l-131 -254h159zM676 756l-2 -8l-186 -64l-12 25l157 102q9 -1 25 -22.5
t18 -32.5z" />
    <glyph glyph-name="aeacute" unicode="&#x1fd;" horiz-adv-x="671" 
d="M624 105l17 -20q-39 -52 -85 -74.5t-78 -22.5q-108 0 -161 89l-35 -27q-81 -62 -121 -62q-52 0 -86.5 37t-34.5 83q0 72 79 100q138 48 165 67v23q0 47 -25.5 77t-62.5 30q-31 0 -47 -23q-13 -14 -28 -64q-6 -24 -27 -24q-13 0 -29.5 13.5t-16.5 28.5q0 22 31 43
q71 51 151 70q45 0 74 -21q28 -20 41 -54q64 74 147 76q63 0 108 -46.5t46 -105.5q0 -17 -5 -24.5t-18 -10.5q-44 -9 -265 -16q-1 -94 44.5 -143t110.5 -49q58 0 111 50zM469 412q-37 0 -68 -33t-38 -92q59 0 175 2q12 0 16.5 5t4.5 18q1 41 -23.5 70.5t-66.5 29.5zM198 51
q62 0 105 56q-20 43 -20 133q-26 -12 -98 -42q-32 -13 -46 -29t-14 -42q0 -35 22 -55.5t51 -20.5zM335 493l-26 13q28 62 68 159q7 3 40 7t41 2l3 -9z" />
    <glyph glyph-name="Oslashacute" unicode="&#x1fe;" horiz-adv-x="749" 
d="M633 674l-50 -75q58 -47 92.5 -115t34.5 -149q0 -157 -96.5 -253.5t-240.5 -96.5q-95 0 -172 50l-57 -80l-26 24l53 77q-121 101 -121 263q0 140 94.5 243t245.5 103q91 0 162 -46l51 75zM216 123l301 443q-59 63 -150 63t-154 -75t-63 -210q0 -134 66 -221zM540 536
l-300 -444q56 -71 150 -71q108 0 164 80t56 204q0 135 -70 231zM504 761l-2 -8l-186 -64l-12 25l157 102q9 -2 25 -23t18 -32z" />
    <glyph glyph-name="oslashacute" unicode="&#x1ff;" horiz-adv-x="513" 
d="M432 454l-36 -53q80 -66 80 -174q0 -111 -66.5 -175t-150.5 -64q-64 0 -115 31l-40 -55l-25 22l38 52q-38 32 -59 78t-21 94q0 59 21.5 106.5t55.5 75t72 42.5t74 15q59 0 109 -29l36 52zM157 100l180 272q-32 44 -88 44q-52 0 -87.5 -48.5t-35.5 -134.5q0 -80 31 -133z
M357 341l-179 -271q32 -49 90 -49q51 0 85 47.5t34 145.5q0 73 -30 127zM245 493l-26 13q17 38 67 159q8 3 40.5 7t40.5 2l3 -9z" />
    <glyph glyph-name="uni0218" unicode="&#x218;" horiz-adv-x="474" 
d="M409 504l-29 -6q-8 29 -16 48.5t-23 41t-38 32.5t-54 11q-54 0 -82.5 -32.5t-28.5 -77.5q0 -51 30 -82t97 -66q33 -17 49 -26t44.5 -29t42.5 -37.5t25.5 -46t11.5 -60.5q0 -80 -62 -134.5t-160 -54.5q-44 0 -98 15q-32 11 -49 21q-11 30 -27 155l29 7q7 -27 18.5 -52
t30.5 -51.5t49 -42.5t66 -16q56 0 88 32.5t32 87.5q0 51 -31.5 82t-98.5 67q-26 14 -35 20l-35 20l-37 30l-28 32l-23 44l-7 51q0 75 56 126.5t150 51.5q53 0 126 -23zM234 -53q30 0 52 -22t22 -57q0 -79 -106 -105l-9 27q60 26 60 56t-45 41q-15 4 -15 24q0 17 12.5 26.5
t28.5 9.5z" />
    <glyph glyph-name="uni0219" unicode="&#x219;" horiz-adv-x="367" 
d="M320 325l-26 -6q-32 99 -103 99q-28 0 -46.5 -20t-18.5 -49q0 -31 22.5 -50.5t62.5 -36.5q62 -26 94 -57t32 -79q0 -64 -50 -101t-115 -37q-35 0 -67.5 10.5t-47.5 23.5q-5 10 -10.5 50.5t-5.5 67.5l26 5q14 -53 47 -88.5t76 -35.5q29 0 50 19.5t21 50.5t-19.5 51.5
t-59.5 39.5q-29 13 -46 23t-38 27t-31 39t-10 49q0 54 42.5 91.5t109.5 37.5q44 0 89 -17q14 -40 22 -107zM183 -43q30 0 52 -22.5t22 -56.5q0 -80 -106 -106l-9 27q60 26 60 56t-45 41q-15 4 -15 24q0 17 12.5 27t28.5 10z" />
    <glyph glyph-name="uni021A" unicode="&#x21a;" horiz-adv-x="617" 
d="M592 498l-29 -3q-15 67 -32 89q-12 19 -32.5 25t-75.5 6h-71v-492q0 -60 16 -75.5t87 -19.5v-28h-287v28q68 4 83.5 19.5t15.5 75.5v492h-62q-60 0 -83 -6.5t-33 -24.5q-13 -18 -32 -89h-29q10 116 12 180h20q10 -16 21 -20.5t34 -4.5h395q19 0 28.5 5t22.5 20h21
q0 -61 10 -177zM301 -37q30 0 51.5 -22t21.5 -57q0 -79 -105 -105l-10 27q60 25 60 56q0 30 -45 41q-15 4 -15 24q0 17 12.5 26.5t29.5 9.5z" />
    <glyph glyph-name="uni021B" unicode="&#x21b;" horiz-adv-x="305" 
d="M298 36l-68 -35q-25 -13 -42 -13q-98 0 -98 119v291h-69l-4 10l27 29h46v73l65 66l14 -2v-137h113q7 -7 5 -20.5t-11 -18.5h-107v-257q0 -96 58 -96q28 0 62 17zM167 -47q30 0 52 -22.5t22 -56.5q0 -78 -106 -106l-10 28q61 24 61 56q0 29 -46 40q-15 6 -15 24
q0 17 12.5 27t29.5 10z" />
    <glyph glyph-name="uni021C" unicode="&#x21c;" horiz-adv-x="518" 
d="M139 269l-9 31q107 42 155.5 86.5t48.5 118.5q0 57 -33 90.5t-81 33.5q-57 0 -90 -36.5t-55 -109.5l-30 7q18 98 23 139q19 4 52.5 14.5t61.5 16t61 5.5q84 0 134.5 -40t50.5 -105q0 -47 -30.5 -83.5t-83.5 -72.5v-3q74 -14 120 -61t46 -118q0 -117 -109.5 -200
t-265.5 -105l-62 43l6 21q49 -9 83 -9q110 0 180.5 61t70.5 158q0 72 -40 109t-92 37q-35 0 -112 -28z" />
    <glyph glyph-name="uni021D" unicode="&#x21d;" horiz-adv-x="385" 
d="M81 108l-11 29q84 37 120 73.5t36 89.5q0 42 -23 66t-59 24q-51 0 -114 -61l-19 22q82 98 164 98q59 0 97.5 -34t38.5 -90q0 -53 -44 -95q-15 -15 -43 -35v-2q59 -13 95 -56t36 -104q0 -102 -88.5 -174t-212.5 -94l-51 37l5 20q38 -6 59 -6q88 0 144 52.5t56 137.5
q0 58 -31.5 91.5t-71.5 33.5q-30 0 -83 -23z" />
    <glyph glyph-name="uni0232" unicode="&#x232;" horiz-adv-x="634" 
d="M620 650v-28q-51 -6 -70 -19t-49 -60q-66 -106 -127 -219q-16 -32 -16 -63v-136q0 -63 15.5 -77.5t84.5 -19.5v-28h-283v28q67 5 82.5 19.5t15.5 77.5v133q0 22 -21 59l-126 220q-31 52 -49 66.5t-62 18.5v28h239v-28q-50 -6 -58.5 -18t8.5 -36q20 -39 134 -237
q87 155 119 225q18 37 9 48.5t-67 17.5v28h221zM443 717h-223v52h223v-52z" />
    <glyph glyph-name="uni0233" unicode="&#x233;" horiz-adv-x="459" 
d="M478 437v-25q-40 -6 -54.5 -18t-34.5 -55q-11 -23 -26 -60l-43 -107l-56 -134q-86 -205 -103 -271q-6 -24 -32 -24q-21 0 -39 15t-18 33q0 19 26 36q41 27 74 89q23 42 31 69q7 22 -1 45q-70 199 -115 306q-16 43 -31 56.5t-55 19.5v25h203v-25q-34 -6 -41 -16.5t3 -38.5
l91 -251q47 115 92 249q9 29 -0.5 40t-51.5 17v25h181zM359 548h-219v55h219v-55z" />
    <glyph glyph-name="uni0237" unicode="&#x237;" horiz-adv-x="256" 
d="M34 389v23q83 12 146 39v-339q0 -98 -23 -162q-22 -66 -59 -120t-62 -76q-12 -11 -25 -11q-11 0 -23.5 13.5t-12.5 30.5q0 19 21 23q54 14 72 38q18 22 25 72q9 65 9 193v195q0 50 -10.5 62t-57.5 19z" />
    <glyph glyph-name="circumflex" unicode="&#x2c6;" 
d="M312 508l-24 -17q-44 42 -88 97q-43 -55 -88 -97l-24 17q56 80 100 163h25q47 -89 99 -163z" />
    <glyph glyph-name="caron" unicode="&#x2c7;" 
d="M288 675l24 -17q-52 -72 -100 -163h-25q-47 88 -100 163l25 17q51 -49 87 -97q54 64 89 97z" />
    <glyph glyph-name="uni02C9" unicode="&#x2c9;" 
d="M310 548h-219v55h219v-55z" />
    <glyph glyph-name="breve" unicode="&#x2d8;" 
d="M281 648h30q0 -73 -31 -105t-81 -32q-49 0 -79.5 32t-30.5 105h30q11 -79 81 -79t81 79z" />
    <glyph glyph-name="dotaccent" unicode="&#x2d9;" 
d="M200 538q-20 0 -35 15t-15 35q0 22 15 37.5t36 15.5t35 -15t14 -38q0 -21 -14.5 -35.5t-35.5 -14.5z" />
    <glyph glyph-name="ring" unicode="&#x2da;" 
d="M200 499q-35 0 -62 24t-27 62q0 37 27 60t63 23q34 0 61 -23t27 -60q0 -38 -27 -62t-62 -24zM201 530q20 0 32 15.5t12 39.5q0 23 -12 37.5t-33 14.5q-19 0 -31.5 -15t-12.5 -37q0 -23 13 -39t32 -16z" />
    <glyph glyph-name="ogonek" unicode="&#x2db;" 
d="M296 -176l-51 -29q-13 -8 -32 -8q-40 0 -61 22.5t-21 51.5q0 9 1.5 18.5t3.5 17t6 18.5l8 17l8 18l10 18l10 18l10 16h37q-30 -67 -30 -110q0 -25 14 -38.5t37 -13.5q20 0 42 8z" />
    <glyph glyph-name="tilde" unicode="&#x2dc;" 
d="M96 521l-26 16q29 90 80 90q21 0 58 -19q38 -19 53 -19q24 0 44 45l25 -14q-27 -90 -79 -90q-23 0 -66 24q-27 15 -46 15q-23 0 -43 -48z" />
    <glyph glyph-name="hungarumlaut" unicode="&#x2dd;" 
d="M135 494l-28 9q43 149 45 161q7 3 37.5 8t39.5 4l3 -10zM273 494l-28 9q45 160 45 161q8 3 38 8t39 4l3 -10z" />
    <glyph glyph-name="uni0374" unicode="&#x374;" horiz-adv-x="230" 
d="M202 644l2 -14l-119 -225l-26 5q20 74 52 240q11 7 45.5 4t45.5 -10z" />
    <glyph glyph-name="uni0375" unicode="&#x375;" horiz-adv-x="230" 
d="M167 120l2 -14l-120 -225l-26 5q27 107 53 240q10 7 44.5 4t46.5 -10z" />
    <glyph glyph-name="uni037E" unicode="&#x37e;" horiz-adv-x="230" 
d="M118 265q-27 0 -45 19t-18 49q0 28 18 47t45 19q28 0 46 -19t18 -47q0 -30 -18 -49t-46 -19zM41 -121l-27 7q26 96 53 240q12 7 46.5 4t45.5 -10l2 -14q-99 -190 -120 -227z" />
    <glyph glyph-name="tonos" unicode="&#x384;" horiz-adv-x="353" 
d="M260 666l-67 -169l-28 1q1 17 5 54l7 66l3 43q6 6 36 11t40 3z" />
    <glyph glyph-name="dieresistonos" unicode="&#x385;" 
d="M309 528q-21 0 -33.5 12.5t-12.5 32.5t12.5 33.5t33.5 13.5q19 0 31 -13.5t12 -33.5t-12 -32.5t-31 -12.5zM252 676l-48 -173l-26 -2q-3 79 -3 172q9 4 38 8.5t36 3.5zM93 528q-20 0 -32.5 12.5t-12.5 32.5t13 33.5t32 13.5t31.5 -13.5t12.5 -33.5t-12.5 -32.5
t-31.5 -12.5z" />
    <glyph glyph-name="Alphatonos" unicode="&#x386;" horiz-adv-x="691" 
d="M673 0h-245v28q47 6 58 16t1 39l-55 154h-213q-31 -88 -44 -129q-16 -47 -5.5 -61t67.5 -19v-28h-217v28q49 7 68 23t44 80l207 525l31 9l193 -536q24 -64 42 -80t68 -21v-28zM418 280l-88 255h-2l-94 -255h184zM208 696l-67 -169l-28 1q15 145 16 163q6 6 35.5 11
t39.5 3z" />
    <glyph glyph-name="anoteleia" unicode="&#x387;" horiz-adv-x="230" 
d="M115 198q-28 0 -46.5 19t-18.5 49q0 28 18.5 47t46.5 19t46.5 -19t18.5 -47q0 -30 -18.5 -49t-46.5 -19z" />
    <glyph glyph-name="Epsilontonos" unicode="&#x388;" horiz-adv-x="568" 
d="M516 162l30 -4q-18 -100 -35 -158h-482v28q68 5 83.5 20t15.5 76v398q0 66 -13 80.5t-73 19.5v28h446q0 -8 8 -144l-29 -5q-11 50 -32 86q-11 16 -35 22t-78 6h-76q-23 0 -28 -4.5t-5 -27.5v-227h94q66 0 82 11.5t26 63.5h29v-192h-29q-10 54 -26 66t-81 12h-95v-189
q0 -64 24 -81q21 -13 104 -13q57 0 83 7t43 27q30 35 49 94zM4 696l-67 -169l-28 1q15 145 16 163q6 6 35.5 11t39.5 3z" />
    <glyph glyph-name="Etatonos" unicode="&#x389;" horiz-adv-x="766" 
d="M729 650v-28q-62 -5 -76 -19.5t-14 -75.5v-404q0 -62 13.5 -76t75.5 -19v-28h-268v28q65 5 79.5 19t14.5 76v200h-341v-200q0 -62 14 -76t76 -19v-28h-263v28q61 5 74.5 19t13.5 76v404q0 62 -13.5 76t-76.5 19v28h259v-28q-58 -5 -71 -19.5t-13 -75.5v-162h341v162
q0 61 -13.5 75.5t-72.5 19.5v28h261zM-3 696l-67 -169l-28 1q15 145 16 163q6 6 35.5 11t39.5 3z" />
    <glyph glyph-name="Iotatonos" unicode="&#x38a;" horiz-adv-x="341" 
d="M303 0h-265v28q62 5 76 19.5t14 77.5v400q0 63 -14 77.5t-76 19.5v28h265v-28q-62 -5 -76 -19.5t-14 -77.5v-400q0 -64 14 -78t76 -19v-28zM-4 696l-67 -169l-27 1q1 12 7.5 78.5t7.5 84.5q6 6 36 11t40 3z" />
    <glyph glyph-name="Omicrontonos" unicode="&#x38c;" horiz-adv-x="747" 
d="M380 665q132 0 227.5 -93t95.5 -239q0 -158 -96 -253t-238 -95q-137 0 -231 95t-94 238q0 142 92.5 244.5t243.5 102.5zM360 629q-89 0 -151.5 -74.5t-62.5 -208.5q0 -141 69 -233t175 -92q89 0 150 74t61 211q0 152 -69 237.5t-172 85.5zM70 686l-67 -169l-28 1
q15 145 16 163q6 6 35.5 11t39.5 3z" />
    <glyph glyph-name="Upsilontonos" unicode="&#x38e;" horiz-adv-x="655" 
d="M468 0h-284v27q68 4 83.5 19.5t15.5 75.5v78q0 162 -53 272q-63 136 -186 136q-25 0 -38 -3l-5 26q60 34 122 34q114 0 173 -150q33 -75 44 -206h5q21 103 59 180q34 77 85.5 126.5t108.5 49.5q29 0 50 -40l-5 -15q-4 0 -8 0.5t-6 0.5q-41 0 -86 -31t-82 -89
q-93 -143 -93 -297v-72q0 -60 16 -75.5t84 -19.5v-27zM-34 696l-67 -169l-28 1q1 12 7.5 78.5t7.5 84.5q6 6 36 11t40 3z" />
    <glyph glyph-name="Omegatonos" unicode="&#x38f;" horiz-adv-x="757" 
d="M719 146l-18 -146h-244l-4 18q2 4 20 30.5t29 44.5t29 53t28.5 65t19 71t8.5 81q0 121 -55.5 194.5t-149.5 73.5q-95 0 -149.5 -72.5t-54.5 -199.5q0 -44 10.5 -89t29.5 -85t34 -67.5t36.5 -60t25.5 -39.5l-7 -18h-244l-17 146l27 1q17 -49 31.5 -62t45.5 -13h89l-21 21
l-26 27l-26 28l-28 36l-22 37l-21 43l-13 46l-5 50q0 134 88 219.5t218 85.5q132 0 218.5 -83.5t86.5 -217.5q0 -40 -11.5 -77.5t-33.5 -72t-39 -56t-44.5 -51t-32.5 -35.5h84q35 0 48.5 12t31.5 63zM80 686l-67 -169l-28 1q15 145 16 163q6 6 35.5 11t39.5 3z" />
    <glyph glyph-name="iotadieresistonos" unicode="&#x390;" horiz-adv-x="245" 
d="M230 57l8 -26q-60 -43 -97 -43q-27 0 -48.5 22.5t-21.5 74.5v347l80 18v-333q0 -68 39 -68q21 0 40 8zM224 532q-21 0 -33.5 12t-12.5 32t12.5 33.5t33.5 13.5q19 0 31.5 -13.5t12.5 -32.5q0 -20 -12.5 -32.5t-31.5 -12.5zM189 678l-94 -173l-28 6q25 89 43 164q9 4 39 8
t37 3zM9 532q-20 0 -33 12.5t-13 31.5q0 20 13 33.5t33 13.5q18 0 30.5 -13.5t12.5 -33.5q0 -19 -12.5 -31.5t-30.5 -12.5z" />
    <glyph glyph-name="Alpha" unicode="&#x391;" horiz-adv-x="691" 
d="M673 0h-245v28q47 6 58 16t1 39l-55 154h-213q-31 -88 -44 -129q-16 -47 -5.5 -61t67.5 -19v-28h-217v28q49 7 68 23t44 80l207 525l31 9l193 -536q24 -64 42 -80t68 -21v-28zM418 280l-88 255h-2l-94 -255h184z" />
    <glyph glyph-name="Beta" unicode="&#x392;" horiz-adv-x="588" 
d="M372 353v-3q177 -27 177 -159q0 -97 -96 -151q-73 -40 -196 -40h-221v28q65 5 78.5 19t13.5 77v403q0 63 -12 77t-72 18v28h257q102 0 150 -34q56 -37 56 -114q0 -64 -40.5 -99t-94.5 -50zM212 362h47q81 0 118.5 32t37.5 96q0 56 -33 92t-100 36q-40 0 -57 -10
q-13 -9 -13 -50v-196zM212 329v-204q0 -54 17.5 -72.5t65.5 -18.5q67 1 111 37.5t44 109.5q0 148 -192 148h-46z" />
    <glyph glyph-name="Gamma" unicode="&#x393;" horiz-adv-x="507" 
d="M485 501l-30 -4q-17 67 -35 90q-12 16 -33.5 22t-69.5 6h-73q-21 0 -26.5 -5t-5.5 -26v-458q0 -62 15.5 -78t83.5 -20v-28h-271v28q58 4 72 20t14 78v398q0 62 -13.5 78t-71.5 20v28h434q0 -51 10 -149z" />
    <glyph glyph-name="uni0394" unicode="&#x394;" horiz-adv-x="641" 
d="M600 0h-556v24l268 632l27 9l261 -641v-24zM498 50l-195 489l-196 -489h391z" />
    <glyph glyph-name="Epsilon" unicode="&#x395;" horiz-adv-x="568" 
d="M516 162l30 -4q-18 -100 -35 -158h-482v28q68 5 83.5 20t15.5 76v398q0 66 -13 80.5t-73 19.5v28h446q0 -8 8 -144l-29 -5q-11 50 -32 86q-11 16 -35 22t-78 6h-76q-23 0 -28 -4.5t-5 -27.5v-227h94q66 0 82 11.5t26 63.5h29v-192h-29q-10 54 -26 66t-81 12h-95v-189
q0 -64 24 -81q21 -13 104 -13q57 0 83 7t43 27q30 35 49 94z" />
    <glyph glyph-name="Zeta" unicode="&#x396;" horiz-adv-x="603" 
d="M561 176l30 -6q-3 -12 -11 -48l-14 -70l-12 -52h-517l-8 15l421 599h-174q-77 0 -102 -7t-39 -29q-20 -29 -34 -87h-30q11 142 12 184h24q9 -16 19 -20.5t34 -4.5h399l7 -14l-413 -594q49 -6 163 -6q94 0 132 7.5t59 29.5q27 30 54 103z" />
    <glyph glyph-name="Eta" unicode="&#x397;" horiz-adv-x="766" 
d="M729 650v-28q-62 -5 -76 -19.5t-14 -75.5v-404q0 -62 13.5 -76t75.5 -19v-28h-268v28q65 5 79.5 19t14.5 76v200h-341v-200q0 -62 14 -76t76 -19v-28h-263v28q61 5 74.5 19t13.5 76v404q0 62 -13.5 76t-76.5 19v28h259v-28q-58 -5 -71 -19.5t-13 -75.5v-162h341v162
q0 61 -13.5 75.5t-72.5 19.5v28h261z" />
    <glyph glyph-name="Theta" unicode="&#x398;" horiz-adv-x="739" 
d="M376 665q131 0 225 -93t94 -238q0 -158 -95 -253.5t-236 -95.5q-136 0 -228 95t-92 237q0 90 38 168.5t115.5 129t178.5 50.5zM356 629q-88 0 -149 -74.5t-61 -209.5q0 -140 67.5 -231.5t171.5 -91.5q89 0 148.5 73t59.5 210q0 153 -66 238.5t-171 85.5zM502 225h-31
q-5 51 -14.5 63t-45.5 12h-85q-36 0 -45.5 -12t-14.5 -63h-31v218h31q5 -51 14.5 -62.5t45.5 -11.5h85q36 0 45.5 11.5t14.5 62.5h31v-218z" />
    <glyph glyph-name="Iota" unicode="&#x399;" horiz-adv-x="341" 
d="M303 0h-265v28q62 5 76 19.5t14 77.5v400q0 63 -14 77.5t-76 19.5v28h265v-28q-62 -5 -76 -19.5t-14 -77.5v-400q0 -64 14 -78t76 -19v-28z" />
    <glyph glyph-name="Kappa" unicode="&#x39a;" horiz-adv-x="673" 
d="M667 0h-154l-248 291q-28 33 -54 28v-190q0 -65 15 -80.5t77 -20.5v-28h-260v28q58 5 71.5 20.5t13.5 80.5v391q0 37 -2 54t-13 28.5t-25.5 14t-47.5 5.5v28h258v-28q-59 -5 -73 -20.5t-14 -81.5v-175q29 8 70 46q110 106 168 177q22 27 19.5 37t-36.5 14l-22 3v28h240
v-28q-57 -5 -86 -18.5t-77 -56.5q-49 -45 -177 -175q116 -144 235 -272q39 -41 61.5 -54t60.5 -18v-28z" />
    <glyph glyph-name="Lambda" unicode="&#x39b;" horiz-adv-x="686" 
d="M671 0h-247v28q49 7 60 18.5t0 45.5l-155 438h-2q-22 -64 -75 -206.5t-74 -208.5q-15 -51 -4.5 -65t67.5 -22v-28h-221v28q50 9 69 26.5t45 84.5l202 516l32 10l194 -535q23 -61 42 -78.5t67 -23.5v-28z" />
    <glyph glyph-name="Mu" unicode="&#x39c;" horiz-adv-x="891" 
d="M861 0h-263v28q61 6 73 23t11 96l-3 408h-4l-244 -548h-20l-224 534h-2l-15 -285q-5 -97 -3 -166q1 -34 20 -45t72 -17v-28h-233v28q45 5 62.5 17t22.5 43q11 75 19 183l14 208q3 36 3.5 55t-2.5 37.5t-6.5 25t-16.5 13t-25.5 8t-39.5 4.5v28h164l228 -500l231 500h170
v-28q-16 -1 -24 -2t-19.5 -3t-16 -3.5t-11.5 -5t-9.5 -7t-6 -10.5t-4 -13.5t-1.5 -18t-0.5 -22.5t0.5 -28l10 -362q2 -80 15 -96.5t78 -22.5v-28z" />
    <glyph glyph-name="Nu" unicode="&#x39d;" horiz-adv-x="743" 
d="M719 650v-28q-43 -2 -62 -15t-22 -45q-6 -45 -6 -168v-403h-31l-426 524h-2v-251q0 -111 6 -169q4 -37 24 -50.5t72 -16.5v-28h-237v28q45 2 64.5 15.5t23.5 49.5q6 62 6 171v220q0 53 -3 67.5t-17 33.5q-25 32 -89 37v28h148l417 -502h3v246q0 101 -7 166
q-4 33 -24.5 46t-73.5 16v28h236z" />
    <glyph glyph-name="Xi" unicode="&#x39e;" horiz-adv-x="607" 
d="M534 494h-29q-14 59 -26 73.5t-57 14.5h-234q-43 0 -55.5 -15.5t-26.5 -72.5h-29l8 156h441zM472 234h-29q-8 47 -19 59t-51 12h-136q-39 0 -50 -11.5t-19 -59.5h-29v210h30q8 -47 17.5 -58.5t44.5 -11.5h142q40 0 51 11.5t18 58.5h30v-210zM560 171l-10 -171h-488
l-11 171h28q22 -64 40 -81.5t76 -17.5h221q59 0 77 17.5t39 81.5h28z" />
    <glyph glyph-name="Omicron" unicode="&#x39f;" horiz-adv-x="747" 
d="M380 665q132 0 227.5 -93t95.5 -239q0 -158 -96 -253t-238 -95q-137 0 -231 95t-94 238q0 142 92.5 244.5t243.5 102.5zM360 629q-89 0 -151.5 -74.5t-62.5 -208.5q0 -141 69 -233t175 -92q89 0 150 74t61 211q0 152 -69 237.5t-172 85.5z" />
    <glyph glyph-name="Pi" unicode="&#x3a0;" horiz-adv-x="738" 
d="M703 650v-28q-62 -5 -76.5 -20.5t-14.5 -75.5v-402q0 -60 14 -76t74 -20v-28h-266v28q63 4 78 20t15 76v459q0 20 -6 25t-27 5h-249q-22 0 -28 -5.5t-6 -26.5v-457q0 -60 14.5 -76t72.5 -20v-28h-258v28q58 4 72 20.5t14 75.5v402q0 61 -14 76t-76 20v28h667z" />
    <glyph glyph-name="Rho" unicode="&#x3a1;" horiz-adv-x="563" 
d="M46 650h247q112 0 168 -42q65 -48 65 -141q0 -90 -57 -142t-138 -63q-26 -2 -45 0l-74 19v-157q0 -63 15.5 -77t83.5 -19v-28h-271v28q60 5 74 20t14 77v400q0 65 -12.5 79t-69.5 18v28zM212 559v-245q31 -12 73 -12q59 0 102 38t43 124q0 77 -42.5 115.5t-108.5 38.5
q-44 0 -56 -12q-11 -10 -11 -47z" />
    <glyph glyph-name="Sigma" unicode="&#x3a3;" horiz-adv-x="598" 
d="M570 168l-39 -168h-498v22l262 302l-249 304v22h472q4 -71 11 -146l-29 -4q-17 65 -37 88q-12 15 -36 20.5t-79 5.5h-181l211 -256l-243 -287h280q51 0 77 20.5t49 83.5z" />
    <glyph glyph-name="Tau" unicode="&#x3a4;" horiz-adv-x="617" 
d="M592 498l-29 -3q-15 67 -32 89q-12 19 -32.5 25t-75.5 6h-71v-492q0 -60 16 -75.5t87 -19.5v-28h-287v28q68 4 83.5 19.5t15.5 75.5v492h-62q-60 0 -83 -6.5t-33 -24.5q-13 -18 -32 -89h-29q10 116 12 180h20q10 -16 21 -20.5t34 -4.5h395q19 0 28.5 5t22.5 20h21
q0 -61 10 -177z" />
    <glyph glyph-name="Upsilon" unicode="&#x3a5;" horiz-adv-x="655" 
d="M468 0h-284v27q68 4 83.5 19.5t15.5 75.5v78q0 162 -53 272q-63 136 -186 136q-25 0 -38 -3l-5 26q60 34 122 34q114 0 173 -150q33 -75 44 -206h5q21 103 59 180q34 77 85.5 126.5t108.5 49.5q29 0 50 -40l-5 -15q-4 0 -8 0.5t-6 0.5q-41 0 -86 -31t-82 -89
q-93 -143 -93 -297v-72q0 -60 16 -75.5t84 -19.5v-27z" />
    <glyph glyph-name="Phi" unicode="&#x3a6;" horiz-adv-x="754" 
d="M489 658v-28q-48 -4 -59.5 -12.5t-11.5 -38.5q49 -2 97 -15t93.5 -39.5t73.5 -75t28 -112.5q0 -53 -19.5 -96.5t-50 -71t-70 -47t-77.5 -28t-75 -9.5q0 -35 12 -44.5t59 -12.5v-28h-223v28q47 3 58.5 12.5t11.5 44.5q-47 1 -94.5 14.5t-93.5 40t-75 75.5t-29 114
q0 52 19 94.5t49.5 70t69.5 47t77.5 28.5t76.5 10q0 30 -11 38.5t-54 12.5v28h218zM336 118v429q-35 -2 -67.5 -14t-63.5 -35t-50 -65t-19 -96q0 -56 18.5 -99t49 -67.5t64 -37.5t68.5 -15zM418 547v-429q35 2 67.5 14t64 35.5t50.5 66t19 99.5q0 56 -19 99t-50 66.5t-64 35
t-68 13.5z" />
    <glyph glyph-name="Chi" unicode="&#x3a7;" horiz-adv-x="654" 
d="M655 0h-263v28q46 5 55.5 14.5t-5.5 34.5l-133 214q-70 -108 -121 -202q-19 -32 -10.5 -43.5t58.5 -17.5v-28h-229v28q44 5 70 17t47 40q58 75 163 239l-134 214q-32 49 -53 63.5t-74 20.5v28h245v-28q-43 -5 -51.5 -14t4.5 -28q34 -58 115 -182q67 104 98 162
q19 33 11 44.5t-58 17.5v28h229v-28q-56 -6 -80 -19.5t-58 -57.5l-122 -179l158 -246q34 -52 60 -69.5t78 -22.5v-28z" />
    <glyph glyph-name="Psi" unicode="&#x3a8;" horiz-adv-x="725" 
d="M700 659l10 -27q-31 -16 -42 -38t-21 -75l-14 -69q-10 -53 -26.5 -82t-47.5 -53q-58 -45 -155 -48v-145q0 -58 14 -74t71 -20v-28h-256v28q57 4 71 20t14 74v145q-104 3 -162 49q-30 23 -46 54t-24 82l-13 72q-6 39 -9 52t-14.5 29.5t-34.5 26.5l10 27q74 -11 106 -50
q20 -26 30 -78l11 -60q16 -92 48.5 -128t97.5 -41v226q0 58 -13.5 74t-66.5 20v28h246v-28q-53 -4 -66.5 -20t-13.5 -74v-226q74 4 103 37.5t46 132.5l10 58q9 53 33 79q33 40 104 50z" />
    <glyph glyph-name="uni03A9" unicode="&#x3a9;" horiz-adv-x="757" 
d="M719 146l-18 -146h-244l-4 18q2 4 20 30.5t29 44.5t29 53t28.5 65t19 71t8.5 81q0 121 -55.5 194.5t-149.5 73.5q-95 0 -149.5 -72.5t-54.5 -199.5q0 -44 10.5 -89t29.5 -85t34 -67.5t36.5 -60t25.5 -39.5l-7 -18h-244l-17 146l27 1q17 -49 31.5 -62t45.5 -13h89l-21 21
l-26 27l-26 28l-28 36l-22 37l-21 43l-13 46l-5 50q0 134 88 219.5t218 85.5q132 0 218.5 -83.5t86.5 -217.5q0 -40 -11.5 -77.5t-33.5 -72t-39 -56t-44.5 -51t-32.5 -35.5h84q35 0 48.5 12t31.5 63z" />
    <glyph glyph-name="Iotadieresis" unicode="&#x3aa;" horiz-adv-x="341" 
d="M303 0h-265v28q62 5 76 19.5t14 77.5v400q0 63 -14 77.5t-76 19.5v28h265v-28q-62 -5 -76 -19.5t-14 -77.5v-400q0 -64 14 -78t76 -19v-28zM266 794q20 0 33.5 -14t13.5 -35q0 -20 -13.5 -34t-33.5 -14t-34 14.5t-14 33.5q0 21 14 35t34 14zM75 794q20 0 34 -14t14 -36
q0 -19 -14 -33.5t-34 -14.5q-19 0 -33 14.5t-14 33.5q0 22 13.5 36t33.5 14z" />
    <glyph glyph-name="Upsilondieresis" unicode="&#x3ab;" horiz-adv-x="655" 
d="M468 0h-284v27q68 4 83.5 19.5t15.5 75.5v78q0 162 -53 272q-63 136 -186 136q-25 0 -38 -3l-5 26q60 34 122 34q114 0 173 -150q33 -75 44 -206h5q21 103 59 180q34 77 85.5 126.5t108.5 49.5q29 0 50 -40l-5 -15q-4 0 -8 0.5t-6 0.5q-41 0 -86 -31t-82 -89
q-93 -143 -93 -297v-72q0 -60 16 -75.5t84 -19.5v-27zM439 794q20 0 33.5 -14t13.5 -35q0 -20 -13.5 -34t-33.5 -14q-19 0 -33.5 14.5t-14.5 33.5q0 21 14 35t34 14zM248 794q20 0 34 -14t14 -36q0 -19 -14 -33.5t-34 -14.5q-19 0 -33.5 14.5t-14.5 33.5q0 21 14 35.5
t34 14.5z" />
    <glyph glyph-name="alphatonos" unicode="&#x3ac;" horiz-adv-x="523" 
d="M506 73l11 -23q-33 -62 -88 -62q-68 0 -81 122h-2q-28 -57 -70 -89.5t-79 -32.5q-63 0 -112 60t-49 145q0 63 29.5 118t76.5 91q61 50 107 50q30 0 59.5 -27t46.5 -77h3q4 31 12 59q22 20 63 43l14 -9q-9 -25 -19.5 -97.5t-11.5 -141.5q0 -73 15 -108.5t36 -35.5
q19 0 39 15zM219 398q-44 0 -72 -50.5t-28 -120.5q1 -74 34 -123.5t72 -49.5q45 0 80.5 50t35.5 110v27q0 62 -35.5 109.5t-86.5 47.5zM326 666l-67 -169l-28 1q15 145 16 163q6 6 35.5 11t39.5 3z" />
    <glyph glyph-name="epsilontonos" unicode="&#x3ad;" horiz-adv-x="403" 
d="M371 117l20 -21q-62 -108 -183 -108q-72 0 -120.5 36.5t-48.5 98.5q0 24 9.5 42.5t28.5 31.5t33.5 20t38.5 16v2q-92 18 -92 95q0 52 49 85.5t123 33.5q66 0 100 -23t34 -53q0 -15 -11.5 -27t-29.5 -12t-22 15q-20 68 -79 68q-35 0 -57.5 -22.5t-22.5 -57.5
q0 -31 24 -51.5t65 -20.5q13 0 64 3l4 -8l-26 -49q-18 3 -49 3q-48 0 -72 -18.5t-24 -50.5q0 -43 32 -69t79 -26q75 0 133 67zM282 666l-67 -169l-28 1q15 145 16 163q6 6 35.5 11t39.5 3z" />
    <glyph glyph-name="etatonos" unicode="&#x3ae;" horiz-adv-x="509" 
d="M441 -249l-7 -8q-17 1 -42 12.5t-38 21.5q1 56 2.5 155.5t2.5 181.5t1 155q0 119 -87 119q-51 0 -106 -52v-336q-28 -3 -84 -11q4 61 4 149v178q0 45 -9 55.5t-51 18.5v23q11 6 54.5 19.5t67.5 16.5q18 -20 18 -77l64 47q45 30 80 30q123 0 125 -161v-130q0 -272 5 -407z
M324 666l-67 -169l-27 1q1 12 7.5 78.5t7.5 84.5q6 6 36 11t40 3z" />
    <glyph glyph-name="iotatonos" unicode="&#x3af;" horiz-adv-x="245" 
d="M230 57l8 -26q-60 -43 -97 -43q-27 0 -48.5 22.5t-21.5 74.5v347l80 18v-333q0 -68 39 -68q21 0 40 8zM184 666l-67 -169l-28 1q15 145 16 163q6 6 35.5 11t39.5 3z" />
    <glyph glyph-name="upsilondieresistonos" unicode="&#x3b0;" horiz-adv-x="481" 
d="M293 424v9q4 4 21.5 10t30.5 6q30 0 63 -48t33 -128q0 -116 -65.5 -200.5t-147.5 -84.5q-60 0 -98.5 37.5t-38.5 111.5q0 27 0.5 89t0.5 91q0 70 -38 70q-18 0 -39 -7l-8 26q67 43 105 43q59 0 59 -104v-192q0 -49 26 -77t63 -28q54 0 83 44.5t29 149.5q0 70 -23.5 116.5
t-55.5 65.5zM341 532q-21 0 -34 12t-13 32t13 33.5t34 13.5q18 0 30.5 -13.5t12.5 -32.5q0 -20 -12.5 -32.5t-30.5 -12.5zM305 678l-94 -173l-28 6l44 164q9 4 39 8.5t36 2.5zM125 532q-20 0 -32.5 12t-12.5 32t12.5 33.5t32.5 13.5q19 0 31.5 -13.5t12.5 -33.5
q0 -19 -12.5 -31.5t-31.5 -12.5z" />
    <glyph glyph-name="alpha" unicode="&#x3b1;" horiz-adv-x="523" 
d="M506 73l11 -23q-33 -62 -88 -62q-68 0 -81 122h-2q-28 -57 -70 -89.5t-79 -32.5q-63 0 -112 60t-49 145q0 63 29.5 118t76.5 91q61 50 107 50q30 0 59.5 -27t46.5 -77h3q4 31 12 59q22 20 63 43l14 -9q-9 -25 -19.5 -97.5t-11.5 -141.5q0 -73 15 -108.5t36 -35.5
q19 0 39 15zM219 398q-44 0 -72 -50.5t-28 -120.5q1 -74 34 -123.5t72 -49.5q45 0 80.5 50t35.5 110v27q0 62 -35.5 109.5t-86.5 47.5z" />
    <glyph glyph-name="beta" unicode="&#x3b2;" horiz-adv-x="510" 
d="M71 -217v586q0 104 16 167t52 105q59 71 137 71q65 0 105 -43t40 -111q0 -38 -19 -71t-36.5 -48t-48.5 -38q61 -12 101 -46q55 -47 55 -131q0 -53 -27 -100t-65.5 -75.5t-78 -45t-68.5 -16.5q-40 0 -85 45q1 -58 5.5 -166t4.5 -115l-8 -8q-19 0 -45 13t-35 27zM212 352
l17 51q46 3 65 17q51 41 51 113q0 58 -29.5 95.5t-75.5 37.5q-17 0 -31 -5.5t-23.5 -18t-16.5 -24.5t-11.5 -34.5t-7 -38.5t-3.5 -46t-1 -47v-50v-8q0 -218 3 -315q54 -36 110 -36q67 0 99.5 34.5t32.5 113.5q0 74 -44.5 118.5t-110.5 44.5q-16 0 -24 -2z" />
    <glyph glyph-name="gamma" unicode="&#x3b3;" horiz-adv-x="495" 
d="M288 57h3q101 197 101 297q0 30 -13 56q-1 7 5 14q24 28 50 28q14 0 22 -17.5t8 -43.5q0 -47 -26.5 -110.5t-90.5 -182.5q-36 -69 -51 -111q1 -20 6 -98t5 -104q-12 -13 -40 -26.5t-48 -15.5l-15 12q2 26 16.5 119.5t16.5 109.5q-3 68 -31.5 173t-74.5 176
q-23 37 -43.5 46t-64.5 0l-6 26q24 15 59.5 29.5t57.5 14.5q48 0 91 -116q42 -107 63 -276z" />
    <glyph glyph-name="delta" unicode="&#x3b4;" horiz-adv-x="497" 
d="M448 586l-11 -21q-103 93 -199 93q-51 0 -51 -27q0 -13 30.5 -50.5t83.5 -87.5q86 -78 122.5 -137t36.5 -138q0 -104 -65 -167t-149 -63q-95 0 -152 67t-57 156q0 170 195 233q-53 56 -75.5 89t-22.5 60q0 44 43.5 81.5t96.5 37.5q67 0 113.5 -40t60.5 -86zM375 198
q0 115 -119 224q-125 -39 -125 -200q0 -84 37.5 -142t90.5 -58q50 0 83 44t33 132z" />
    <glyph glyph-name="epsilon" unicode="&#x3b5;" horiz-adv-x="403" 
d="M371 117l20 -21q-62 -108 -183 -108q-72 0 -120.5 36.5t-48.5 98.5q0 24 9.5 42.5t28.5 31.5t33.5 20t38.5 16v2q-92 18 -92 95q0 52 49 85.5t123 33.5q66 0 100 -23t34 -53q0 -15 -11.5 -27t-29.5 -12t-22 15q-20 68 -79 68q-35 0 -57.5 -22.5t-22.5 -57.5
q0 -31 24 -51.5t65 -20.5q13 0 64 3l4 -8l-26 -49q-18 3 -49 3q-48 0 -72 -18.5t-24 -50.5q0 -43 32 -69t79 -26q75 0 133 67z" />
    <glyph glyph-name="zeta" unicode="&#x3b6;" horiz-adv-x="381" 
d="M131 737l15 -4q0 -41 27.5 -70t64.5 -31q74 66 117 66q18 0 18 -12q0 -48 -41 -68q-37 -20 -79 -23q-57 -61 -95 -150t-38 -193q0 -140 93 -167q10 -2 27.5 -7.5t22.5 -6.5q97 -24 97 -100q0 -66 -70 -142l-25 17q25 52 25 84q0 27 -15.5 43.5t-52.5 25.5q-30 8 -57 16
q-127 35 -127 207q0 104 47.5 202t123.5 173q-49 4 -85 26t-37 51q0 14 12 32t32 31z" />
    <glyph glyph-name="eta" unicode="&#x3b7;" horiz-adv-x="509" 
d="M441 -249l-7 -8q-17 1 -42 12.5t-38 21.5q1 56 2.5 155.5t2.5 181.5t1 155q0 119 -87 119q-51 0 -106 -52v-336q-28 -3 -84 -11q4 61 4 149v178q0 45 -9 55.5t-51 18.5v23q11 6 54.5 19.5t67.5 16.5q18 -20 18 -77l64 47q45 30 80 30q123 0 125 -161v-130q0 -272 5 -407z
" />
    <glyph glyph-name="theta" unicode="&#x3b8;" horiz-adv-x="490" 
d="M452 359q0 -163 -53.5 -267t-158.5 -104q-97 0 -150 103.5t-53 258.5q0 152 57.5 257t153.5 105q99 0 151.5 -101.5t52.5 -251.5zM124 391h240q-2 118 -33 202.5t-86 84.5q-52 0 -85.5 -85.5t-35.5 -201.5zM365 341h-242q2 -136 36.5 -227.5t89.5 -91.5q57 0 86 88.5
t30 230.5z" />
    <glyph glyph-name="iota" unicode="&#x3b9;" horiz-adv-x="245" 
d="M230 57l8 -26q-60 -43 -97 -43q-27 0 -48.5 22.5t-21.5 74.5v347l80 18v-333q0 -68 39 -68q21 0 40 8z" />
    <glyph glyph-name="kappa" unicode="&#x3ba;" horiz-adv-x="493" 
d="M481 58l4 -28q-34 -42 -87 -42q-45 0 -94 68q-38 54 -100 157q-26 -29 -39 -48v-165q-23 -2 -82 -11q4 84 4 152v191q0 34 -9 42.5t-51 15.5v23q10 6 56 20t69 16q13 -13 13 -91v-148q16 24 65 83t75 86q70 71 106 71q20 0 32 -13t12 -29q0 -27 -18 -41q-7 -7 -15 -1
q-16 10 -35 10q-46 0 -128 -100q35 -72 110 -171q42 -57 74 -57q18 0 38 10z" />
    <glyph glyph-name="lambda" unicode="&#x3bb;" horiz-adv-x="493" 
d="M474 53l9 -24q-39 -41 -93 -41q-31 0 -52 28t-44 100l-75 246q-27 -89 -66 -197.5t-61 -155.5l-70 -21l-7 12q115 212 185 428q-23 83 -31 106q-24 69 -45.5 96t-51.5 26q-19 0 -39 -9l-8 23q48 42 96 42q40 0 74 -47.5t70 -178.5q60 -213 114 -364q26 -76 61 -76
q17 0 34 7z" />
    <glyph glyph-name="uni03BC" unicode="&#x3bc;" horiz-adv-x="512" 
d="M498 54l10 -26q-13 -16 -37 -28t-48 -12q-31 0 -52 21.5t-26 56.5h-2q-67 -78 -133 -78q-53 0 -82 42h-4v-16q-1 -56 12 -141.5t25 -117.5l-13 -12q-16 1 -39.5 14t-35.5 25q-2 6 -2 259v294q0 61 -3 96l81 19q2 -24 2 -106v-171q0 -65 27.5 -94t64.5 -29q29 0 56 16.5
t43 36.5v329l80 18v-336q0 -70 41 -70q17 0 35 10z" />
    <glyph glyph-name="nu" unicode="&#x3bd;" horiz-adv-x="476" 
d="M25 379l-7 26q69 44 108 44q19 0 35.5 -20t36.5 -74q13 -37 85 -259q94 169 94 244q0 37 -18 62q-6 9 1 20q6 11 18.5 19.5t23.5 8.5q19 0 31.5 -21t12.5 -47q0 -14 -3 -30t-11 -37l-14 -36l-21 -43l-23 -42l-26 -48l-27 -49l-59 -109h-25q-52 172 -108 318
q-17 45 -32 61.5t-33 16.5q-22 0 -39 -5z" />
    <glyph glyph-name="xi" unicode="&#x3be;" horiz-adv-x="404" 
d="M349 396l-36 -54q-30 4 -57 4q-60 0 -99 -37t-39 -102q0 -99 115 -127q7 -2 25 -6l26 -6q101 -24 101 -102q0 -31 -16.5 -64t-29.5 -48t-23 -24l-25 14q25 48 25 85q0 49 -65 66l-62 15q-78 17 -114.5 56.5t-36.5 107.5q0 110 129 184q-38 10 -62.5 41t-24.5 71
q0 84 91 144q-40 5 -70.5 24.5t-31.5 41.5q0 34 35 59l16 -3q1 -34 26.5 -60t61.5 -29q79 47 138 47q11 0 15 -4t3 -12q-9 -43 -43 -57q-50 -15 -106 -11q-62 -39 -62 -109q0 -38 28.5 -68t87.5 -30q27 0 74 5z" />
    <glyph glyph-name="omicron" unicode="&#x3bf;" horiz-adv-x="510" 
d="M256 449q92 0 154.5 -64.5t62.5 -158.5q0 -112 -67 -175t-150 -63q-98 0 -158.5 66.5t-60.5 154.5q0 59 21 106.5t54.5 75.5t70.5 43t73 15zM246 416q-49 0 -82.5 -47t-33.5 -128q0 -96 38 -158t99 -62q51 0 82 43.5t31 139.5q0 92 -35.5 152t-98.5 60z" />
    <glyph glyph-name="pi" unicode="&#x3c0;" horiz-adv-x="531" 
d="M486 466l27 -6q-7 -54 -24 -84q-14 -4 -76 -4q-4 -72 -4 -225q1 -93 41 -93q19 0 42 10l11 -20q-16 -25 -41 -40.5t-50 -15.5q-74 0 -74 126q0 107 9 260q-56 1 -140 1v-20q0 -109 -12 -193.5t-22 -114.5t-18 -41q-38 -16 -65 -18l-8 18q41 60 60 167t19 203
q-82 1 -128 -36l-16 24q65 78 175 77q207 -3 243 -3q22 0 31.5 5t19.5 23z" />
    <glyph glyph-name="rho" unicode="&#x3c1;" horiz-adv-x="501" 
d="M75 -257l-7 10q6 24 6 140q0 37 -1 101.5t-1.5 113t-0.5 80.5q0 69 19.5 121t73.5 93q60 47 120 47q84 0 132 -59.5t48 -141.5q0 -109 -79 -183.5t-155 -76.5q-44 0 -79 37q4 -236 4 -240q-6 -14 -32.5 -27t-47.5 -15zM382 214q0 76 -38.5 130.5t-100.5 54.5
q-54 0 -74 -45t-20 -132q0 -100 2 -139q45 -43 101 -43q57 0 93.5 40.5t36.5 133.5z" />
    <glyph glyph-name="uni03C2" unicode="&#x3c2;" horiz-adv-x="403" 
d="M301 -158l-25 18q30 40 30 79q0 26 -19.5 40.5t-66.5 24.5q-6 1 -22 5l-24 6q-137 38 -137 186q0 114 98 191q72 57 147 57q48 0 81 -20q18 -14 18 -33q-1 -16 -14.5 -31t-23.5 -15q-7 0 -21 11q-43 34 -92 34q-56 0 -87 -41.5t-31 -112.5q0 -128 111 -155l25 -6l24 -6
q50 -12 77 -34t27 -67q0 -39 -23.5 -74t-51.5 -57z" />
    <glyph glyph-name="sigma" unicode="&#x3c3;" horiz-adv-x="515" 
d="M280 448q34 0 86 -2t70 -2q36 0 56 24l25 -13q-17 -64 -37 -77q-36 1 -122 10l-2 -2q94 -55 94 -166q0 -107 -61 -169.5t-142 -62.5q-98 0 -154 65t-56 159q0 107 68.5 172t174.5 64zM258 396q-56 0 -93.5 -46.5t-37.5 -133.5q0 -82 36 -138t91 -56q51 0 82.5 45.5
t31.5 143.5q0 85 -35 140q-29 45 -75 45z" />
    <glyph glyph-name="tau" unicode="&#x3c4;" horiz-adv-x="446" 
d="M401 465l29 -4q-11 -62 -23 -85q-14 -4 -75 -4q-46 2 -70 2q-5 -92 -3 -225q0 -94 48 -94q23 0 46 10l11 -24q-17 -22 -44 -37.5t-54 -15.5q-38 0 -58.5 27t-20.5 95q0 110 9 267q-60 1 -97 -6.5t-69 -30.5l-15 24q58 76 165 76q32 0 91.5 -1.5t75.5 -1.5q23 0 34.5 5
t19.5 23z" />
    <glyph glyph-name="upsilon" unicode="&#x3c5;" horiz-adv-x="481" 
d="M293 424v9q4 4 21.5 10t30.5 6q30 0 63 -48t33 -128q0 -116 -65.5 -200.5t-147.5 -84.5q-60 0 -98.5 37.5t-38.5 111.5q0 27 0.5 89t0.5 91q0 70 -38 70q-18 0 -39 -7l-8 26q67 43 105 43q59 0 59 -104v-192q0 -49 26 -77t63 -28q54 0 83 44.5t29 149.5q0 70 -23.5 116.5
t-55.5 65.5z" />
    <glyph glyph-name="phi" unicode="&#x3c6;" horiz-adv-x="587" 
d="M232 460l14 -28q-26 -15 -43.5 -28.5t-37.5 -36.5t-30.5 -55.5t-10.5 -73.5q0 -83 40 -134t95 -64q-2 88 -2 228q1 91 41.5 136t93.5 45q61 0 109.5 -56.5t48.5 -147.5q0 -103 -62.5 -169.5t-154.5 -80.5q0 -17 1.5 -82.5t1.5 -126.5q-7 -15 -30.5 -28.5t-44.5 -14.5
l-6 5q3 42 3 242q-100 5 -161 68t-61 160q0 162 196 242zM372 407q-23 0 -32 -21.5t-9 -82.5v-113l2 -154q58 3 100 53t42 139q0 82 -33 130.5t-70 48.5z" />
    <glyph glyph-name="chi" unicode="&#x3c7;" horiz-adv-x="467" 
d="M486 -194l8 -29q-43 -34 -85 -34q-29 0 -51.5 21t-46.5 77q-23 57 -80 218q-77 -167 -144 -328l-11 -2q-15 6 -27 20t-13 31l176 333q-38 111 -76 200q-18 42 -32 57.5t-33 15.5t-46 -11l-8 26q57 48 101 48q46 0 81 -83q12 -26 37 -92l28 -77l64 135l44 95l71 22l7 -10
q-57 -85 -167 -295q64 -180 101 -263q22 -51 44.5 -68t57.5 -7z" />
    <glyph glyph-name="psi" unicode="&#x3c8;" horiz-adv-x="605" 
d="M581 449l11 -27q-23 -19 -33.5 -40t-18.5 -59q-3 -13 -15 -70.5t-21 -95.5q-22 -93 -88 -137q-34 -22 -69 -26l-4 -246l-9 -5q-13 2 -20.5 8.5t-14.5 32.5t-8 73l-1 132q-76 2 -123 41.5t-61 129.5q-5 34 -11.5 83t-8.5 66q-12 74 -43 74q-10 0 -28 -4l-8 27q47 43 92 43
q57 0 69 -110l6 -63l6 -68q9 -87 37.5 -127t74.5 -46l-7 456l58 32l10 -5l-5 -485q46 6 68 36.5t30 81.5q5 28 19 157q8 67 21 82q39 43 95 59z" />
    <glyph glyph-name="omega" unicode="&#x3c9;" horiz-adv-x="645" 
d="M448 420v13q4 4 20 10t29 6q33 0 71 -52t38 -133q0 -119 -67 -197.5t-131 -78.5q-71 0 -105 75q-22 -30 -53 -52.5t-59 -22.5q-62 0 -107 60.5t-45 153.5q0 158 148 251l18 -24q-81 -77 -81 -195q0 -79 31.5 -130.5t71.5 -51.5q36 0 54 31.5t17 73.5q-1 62 -12 180l83 19
l8 -5q-1 -19 -7 -89t-7 -105q-1 -43 19.5 -75t59.5 -32q94 0 94 176q0 76 -26.5 125.5t-61.5 68.5z" />
    <glyph glyph-name="iotadieresis" unicode="&#x3ca;" horiz-adv-x="245" 
d="M230 57l8 -26q-60 -43 -97 -43q-27 0 -48.5 22.5t-21.5 74.5v347l80 18v-333q0 -68 39 -68q21 0 40 8zM32 538q-19 0 -33 14.5t-14 33.5q0 21 14 35.5t34 14.5t33.5 -14.5t13.5 -35.5q0 -19 -14 -33.5t-34 -14.5zM201 538q-19 0 -33.5 14.5t-14.5 33.5q0 21 14.5 35.5
t34.5 14.5q19 0 32.5 -14.5t13.5 -35.5q0 -19 -13.5 -33.5t-33.5 -14.5z" />
    <glyph glyph-name="upsilondieresis" unicode="&#x3cb;" horiz-adv-x="481" 
d="M293 424v9q4 4 21.5 10t30.5 6q30 0 63 -48t33 -128q0 -116 -65.5 -200.5t-147.5 -84.5q-60 0 -98.5 37.5t-38.5 111.5q0 27 0.5 89t0.5 91q0 70 -38 70q-18 0 -39 -7l-8 26q67 43 105 43q59 0 59 -104v-192q0 -49 26 -77t63 -28q54 0 83 44.5t29 149.5q0 70 -23.5 116.5
t-55.5 65.5zM154 538q-19 0 -33.5 14.5t-14.5 33.5q0 21 14.5 35.5t34.5 14.5t33.5 -14.5t13.5 -35.5q0 -19 -14 -33.5t-34 -14.5zM322 538q-19 0 -33 14.5t-14 33.5q0 21 14 35.5t34 14.5t33.5 -14.5t13.5 -35.5q0 -19 -14 -33.5t-34 -14.5z" />
    <glyph glyph-name="omicrontonos" unicode="&#x3cc;" horiz-adv-x="510" 
d="M256 449q92 0 154.5 -64.5t62.5 -158.5q0 -112 -67 -175t-150 -63q-98 0 -158.5 66.5t-60.5 154.5q0 59 21 106.5t54.5 75.5t70.5 43t73 15zM246 416q-49 0 -82.5 -47t-33.5 -128q0 -96 38 -158t99 -62q51 0 82 43.5t31 139.5q0 92 -35.5 152t-98.5 60zM325 666l-67 -169
l-27 1q1 12 7.5 78.5t7.5 84.5q6 6 36 11t40 3z" />
    <glyph glyph-name="upsilontonos" unicode="&#x3cd;" horiz-adv-x="481" 
d="M293 424v9q4 4 21.5 10t30.5 6q30 0 63 -48t33 -128q0 -116 -65.5 -200.5t-147.5 -84.5q-60 0 -98.5 37.5t-38.5 111.5q0 27 0.5 89t0.5 91q0 70 -38 70q-18 0 -39 -7l-8 26q67 43 105 43q59 0 59 -104v-192q0 -49 26 -77t63 -28q54 0 83 44.5t29 149.5q0 70 -23.5 116.5
t-55.5 65.5zM303 666l-67 -169l-28 1q15 145 16 163q6 6 35.5 11t39.5 3z" />
    <glyph glyph-name="omegatonos" unicode="&#x3ce;" horiz-adv-x="645" 
d="M448 420v13q4 4 20 10t29 6q33 0 71 -52t38 -133q0 -119 -67 -197.5t-131 -78.5q-71 0 -105 75q-22 -30 -53 -52.5t-59 -22.5q-62 0 -107 60.5t-45 153.5q0 158 148 251l18 -24q-81 -77 -81 -195q0 -79 31.5 -130.5t71.5 -51.5q36 0 54 31.5t17 73.5q-1 62 -12 180l83 19
l8 -5q-1 -19 -7 -89t-7 -105q-1 -43 19.5 -75t59.5 -32q94 0 94 176q0 76 -26.5 125.5t-61.5 68.5zM407 665l-67 -170l-27 2q1 12 7.5 78.5t7.5 84.5q6 6 36 11t40 3z" />
    <glyph glyph-name="uni03D0" unicode="&#x3d0;" horiz-adv-x="497" 
d="M461 220q0 -106 -65 -169t-141 -63q-61 0 -105 27t-67 73.5t-33.5 98t-10.5 111.5q0 220 115 341q68 73 145 73q55 0 90.5 -33t34.5 -93q-1 -55 -35.5 -90t-102.5 -71q175 -22 175 -205zM348 571q0 41 -21 69.5t-57 28.5q-41 0 -70.5 -32t-44 -83t-21.5 -94t-8 -83
l111 56q110 59 111 138zM371 200q0 86 -37.5 135t-95.5 49q-48 0 -113 -46q-1 -133 35.5 -223.5t101.5 -90.5q51 0 80 46.5t29 129.5z" />
    <glyph glyph-name="uni03D1" unicode="&#x3d1;" horiz-adv-x="496" 
d="M22 231l-6 24q13 12 39.5 25t51.5 13q32 0 46.5 -26t20.5 -73l8 -50q15 -99 83 -101q119 0 120 262q2 39 -2 79q-77 -57 -137 -57q-86 0 -135 53t-49 128q0 89 59.5 146.5t134.5 57.5q84 0 144 -82.5t61 -254.5q1 -101 -26.5 -193.5t-92.5 -148.5q-50 -45 -105 -45
q-109 0 -134 127q-5 22 -10 56q-4 45 -19 55.5t-52 4.5zM223 670q-42 0 -66 -33t-24 -92q0 -67 40 -114t102 -47q57 0 106 32q-11 112 -52.5 183t-105.5 71z" />
    <glyph glyph-name="uni03D5" unicode="&#x3d5;" horiz-adv-x="582" 
d="M336 651l-4 -201q93 -11 153 -70t60 -157t-65 -156.5t-154 -72.5l-4 -249l-5 -3q-14 2 -22.5 8.5t-16.5 35t-8 79.5l-2 125q-105 4 -168 64.5t-63 154.5q0 106 78 171q43 37 99 56l12 -29q-101 -49 -101 -176q0 -84 41.5 -134.5t100.5 -60.5l1 413l-1 168l58 37zM330 407
l-2 -371q142 12 142 183q0 73 -40.5 123t-99.5 65z" />
    <glyph glyph-name="uni03D6" unicode="&#x3d6;" horiz-adv-x="665" 
d="M144 489l-9 28q97 58 205 58q134 0 211 -80t77 -221q0 -65 -21 -121.5t-53 -91t-66 -54t-63 -19.5q-41 0 -70.5 23.5t-43.5 54.5q-21 -29 -57 -53.5t-62 -24.5q-62 0 -108 60.5t-46 153.5q0 85 36.5 144.5t110.5 105.5l18 -24q-80 -73 -80 -192q0 -80 31.5 -130.5
t71.5 -50.5q37 0 60 31t22 70q0 48 -12 180l83 20l8 -6q-1 -22 -7 -91.5t-7 -100.5q0 -42 24 -73.5t65 -31.5q42 0 70.5 44t28.5 136q0 143 -77 216t-190 73q-81 0 -150 -33z" />
    <glyph glyph-name="uni03D9" unicode="&#x3d9;" horiz-adv-x="508" 
d="M256 449q92 0 154 -65t62 -158q0 -97 -51.5 -157.5t-123.5 -75.5v-87q0 -46 -7 -63q-16 -39 -65 -61l-10 6q2 37 2 136v68q-83 13 -132 75.5t-49 141.5q0 59 21 106.5t54.5 75.5t71 43t73.5 15zM245 415q-51 0 -83.5 -46t-32.5 -128q0 -95 37.5 -156t99.5 -61
q113 0 113 180q0 91 -35.5 151t-98.5 60z" />
    <glyph glyph-name="uni03DB" unicode="&#x3db;" horiz-adv-x="404" 
d="M367 466l26 -10q-7 -46 -22.5 -67t-32.5 -21q-15 0 -47 9q-46 13 -71 13q-48 0 -78.5 -40.5t-30.5 -116.5q0 -121 108 -147q10 -3 28.5 -7.5t24.5 -5.5q53 -12 78 -35t25 -67q0 -53 -43 -94t-84 -41q-15 0 -25.5 10t-10.5 24q0 18 18 35q7 7 14 3q18 -9 41 -9q17 0 28 10
t11 29q0 46 -100 65q-44 10 -63 15q-124 34 -124 179q0 61 27.5 112.5t69.5 84.5q71 55 130 55q35 0 62 -6t41 23z" />
    <glyph glyph-name="uni03DD" unicode="&#x3dd;" horiz-adv-x="453" 
d="M426 451l-33 -67q-67 12 -190 12h-37v-263q149 3 213 10l5 -12l-33 -48q-34 7 -186 10v-111q0 -112 -23 -164t-79 -80l-8 8q33 54 33 249v442h176q119 0 151 24z" />
    <glyph glyph-name="uni03E1" unicode="&#x3e1;" horiz-adv-x="669" 
d="M76 619l-6 24l43 14q30 10 67 10q112 0 200 -39t140 -104t79 -143.5t27 -164.5q1 -217 -134 -382l-24 17q86 155 86 346q0 34 -6 72l-68 -38l-80 -55l-97 -87q-48 -50 -42 -90l-1 -9q-8 -4 -18 -4q-11 0 -21 7t-15.5 20t-5 30t13.5 40t37 46q39 38 95 76t94 59l100 54
q-14 58 -36.5 100t-39.5 60q-75 -52 -186 -109t-150 -68q-27 -8 -51.5 1t-33.5 23l2 9q228 67 392 176q-53 54 -130.5 84.5t-165.5 30.5q-31 0 -65 -6z" />
    <glyph glyph-name="uni03F0" unicode="&#x3f0;" horiz-adv-x="544" 
d="M518 86l15 -24q-50 -74 -110 -74q-39 0 -62 32t-23 86q0 76 32 165l-4 4q-40 -40 -130.5 -139t-142.5 -148h-14q-23 8 -36 30t-9 37q26 12 73 52q36 56 36 150q0 58 -17.5 91.5t-50.5 33.5q-24 0 -50 -21l-11 24q55 65 112 65q37 0 57.5 -31.5t20.5 -82.5q0 -80 -42 -184
l5 -2l210 228l13 18l15 18l13 15l14 13l12 7q30 2 50 -32q6 -12 3 -25q-13 -13 -43.5 -39.5t-38.5 -34.5q-21 -51 -21 -134q0 -54 19 -88t51 -34q30 0 54 24z" />
    <glyph glyph-name="uni0401" unicode="&#x401;" horiz-adv-x="568" 
d="M516 162l30 -4q-18 -100 -35 -158h-482v28q68 5 83.5 20t15.5 76v398q0 66 -13 80.5t-73 19.5v28h446q0 -8 8 -144l-29 -5q-11 50 -32 86q-11 16 -35 22t-78 6h-76q-23 0 -28 -4.5t-5 -27.5v-227h94q66 0 82 11.5t26 63.5h29v-192h-29q-10 54 -26 66t-81 12h-95v-189
q0 -64 24 -81q21 -13 104 -13q57 0 83 7t43 27q30 35 49 94zM386 794q20 0 33.5 -14t13.5 -35q0 -20 -13.5 -34t-33.5 -14t-34 14.5t-14 33.5q0 21 14 35t34 14zM195 794q20 0 34 -14t14 -36q0 -19 -14 -33.5t-34 -14.5q-19 0 -33 14.5t-14 33.5q0 22 13.5 36t33.5 14z" />
    <glyph glyph-name="uni0402" unicode="&#x402;" horiz-adv-x="722" 
d="M348 615v-252q84 29 124 29q95 0 151 -68t56 -167q0 -64 -21.5 -119.5t-57.5 -95t-76.5 -66.5t-84.5 -44l-13 29q157 96 157 288q0 91 -41 144t-108 53q-47 0 -86 -14v-207q0 -63 16 -78t86 -19v-28h-287v28q69 4 84.5 19t15.5 78v490h-58q-57 0 -79 -7t-35 -25
q-15 -22 -34 -92l-30 2q9 110 12 182h22q9 -16 21 -20.5t35 -4.5h400q23 0 34 5t22 20h24q0 -67 10 -182l-30 -3q-15 68 -35 94q-12 18 -35 24.5t-78 6.5h-81z" />
    <glyph glyph-name="uni0403" unicode="&#x403;" horiz-adv-x="512" 
d="M487 508l-30 -4q-15 58 -33 86q-18 26 -108 26h-64q-29 0 -35 -5.5t-6 -31.5v-454q0 -64 15 -78.5t82 -19.5v-27h-266v27q58 5 71 19.5t13 78.5v400q0 35 -2 51.5t-12 27t-22.5 13t-43.5 5.5v28h430q5 -88 11 -142zM408 756l-2 -8l-186 -64l-12 25l157 102q9 -1 25 -22.5
t18 -32.5z" />
    <glyph glyph-name="uni0404" unicode="&#x404;" horiz-adv-x="643" 
d="M521 310l-377 8q4 -137 71.5 -216t170.5 -79q62 0 97 24t63 69q26 43 46 43q24 0 24 -30q0 -39 -57 -85q-32 -26 -82 -42.5t-103 -16.5q-108 0 -185 49t-111.5 122t-34.5 160q0 156 100 252.5t263 96.5q84 0 172 -32q5 -30 11.5 -78t9.5 -65l-29 -6q-22 81 -65.5 113.5
t-117.5 32.5q-111 0 -174.5 -74t-68.5 -197l377 9v-58z" />
    <glyph glyph-name="uni0405" unicode="&#x405;" horiz-adv-x="474" 
d="M409 504l-29 -6q-8 29 -16 48.5t-23 41t-38 32.5t-54 11q-54 0 -82.5 -32.5t-28.5 -77.5q0 -51 30 -82t97 -66q33 -17 49 -26t44.5 -29t42.5 -37.5t25.5 -46t11.5 -60.5q0 -80 -62 -134.5t-160 -54.5q-44 0 -98 15q-32 11 -49 21q-11 30 -27 155l29 7q7 -27 18.5 -52
t30.5 -51.5t49 -42.5t66 -16q56 0 88 32.5t32 87.5q0 51 -31.5 82t-98.5 67q-26 14 -35 20l-35 20l-37 30l-28 32l-23 44l-7 51q0 75 56 126.5t150 51.5q53 0 126 -23z" />
    <glyph glyph-name="uni0406" unicode="&#x406;" horiz-adv-x="341" 
d="M303 0h-265v28q62 5 76 19.5t14 77.5v400q0 63 -14 77.5t-76 19.5v28h265v-28q-62 -5 -76 -19.5t-14 -77.5v-400q0 -64 14 -78t76 -19v-28z" />
    <glyph glyph-name="uni0407" unicode="&#x407;" horiz-adv-x="341" 
d="M303 0h-265v28q62 5 76 19.5t14 77.5v400q0 63 -14 77.5t-76 19.5v28h265v-28q-62 -5 -76 -19.5t-14 -77.5v-400q0 -64 14 -78t76 -19v-28zM266 794q20 0 33.5 -14t13.5 -35q0 -20 -13.5 -34t-33.5 -14t-34 14.5t-14 33.5q0 21 14 35t34 14zM75 794q20 0 34 -14t14 -36
q0 -19 -14 -33.5t-34 -14.5q-19 0 -33 14.5t-14 33.5q0 22 13.5 36t33.5 14z" />
    <glyph glyph-name="uni0408" unicode="&#x408;" horiz-adv-x="329" 
d="M303 650v-28q-58 -5 -71.5 -19.5t-13.5 -77.5v-374q0 -98 -18.5 -155.5t-67.5 -102.5q-48 -44 -93 -58l-13 28q80 40 96 131q11 59 11 190v341q0 63 -14 77.5t-75 19.5v28h259z" />
    <glyph glyph-name="uni0409" unicode="&#x409;" horiz-adv-x="889" 
d="M560 0h-224v28q45 3 61 9.5t22.5 24.5t6.5 65v435q0 38 -5.5 45.5t-33.5 7.5h-101q-27 0 -33.5 -5t-6.5 -25q0 -400 -112 -550q-39 -50 -75 -50q-21 0 -49 11v19q58 35 103 109q36 60 60 172.5t24 255.5q0 42 -16.5 54.5t-77.5 16.5v27h498v-27q-62 -4 -77 -19.5
t-15 -70.5v-153q58 6 95 6q121 0 182.5 -48.5t61.5 -134.5q0 -111 -91 -164q-68 -39 -197 -39zM509 347v-208q0 -64 16.5 -84.5t70.5 -20.5q70 1 112 40t42 122q0 80 -46 118t-125 38q-30 0 -70 -5z" />
    <glyph glyph-name="uni040A" unicode="&#x40a;" horiz-adv-x="959" 
d="M296 0h-254v28q57 4 71 18.5t14 77.5v406q0 60 -13.5 74t-72.5 18v28h255v-28q-58 -4 -71.5 -18.5t-13.5 -73.5v-156h284v149q0 65 -12.5 79.5t-68.5 19.5v28h252v-28q-60 -5 -73.5 -19.5t-13.5 -79.5v-149h93q122 0 185.5 -45.5t63.5 -130.5q0 -105 -91 -159
q-68 -39 -197 -39h-221v28q32 3 45.5 5.5t24 13t12 27t1.5 51.5v210h-284v-211q0 -63 13.5 -77.5t71.5 -18.5v-28zM579 335v-214q0 -55 15.5 -70.5t69.5 -15.5q69 1 114.5 37t45.5 116q0 77 -44.5 112t-133.5 35h-67z" />
    <glyph glyph-name="uni040B" unicode="&#x40b;" horiz-adv-x="776" 
d="M751 0h-241v27q50 5 62 19t12 73v106q0 120 -122 120q-56 0 -113 -23v-198q0 -62 14.5 -77.5t77.5 -19.5v-27h-272v27q65 4 80 19.5t15 77.5v491h-63q-59 0 -81.5 -7.5t-33.5 -28.5q-15 -25 -30 -82h-30q10 117 12 178h21q10 -16 21.5 -20.5t31.5 -4.5h415q33 0 51 25h24
q-2 -71 10 -175l-30 -3q-20 67 -30 84q-11 21 -35.5 27.5t-84.5 6.5h-83v-261q104 40 153 40q89 0 132 -47q35 -38 35 -120v-107q0 -61 12.5 -74.5t69.5 -18.5v-27z" />
    <glyph glyph-name="uni040C" unicode="&#x40c;" horiz-adv-x="650" 
d="M635 0h-84q-45 0 -71 21.5t-49 70.5l-72 143q-29 59 -60.5 76t-87.5 16v-202q0 -63 13.5 -77.5t71.5 -19.5v-28h-254v28q58 5 71 19.5t13 77.5v407q0 58 -13 71.5t-71 18.5v28h254v-28q-58 -5 -71.5 -18.5t-13.5 -71.5v-172q52 1 78 9.5t50 31.5q15 14 30 38.5t24.5 44.5
t33.5 75q48 106 118 106q25 0 39.5 -11.5t14.5 -28.5q0 -13 -12 -21t-29 -9h-22q-31 0 -52.5 -27.5t-60.5 -107.5q-17 -35 -39.5 -61t-31.5 -32.5t-25 -16.5v-3q75 -22 117 -93q11 -18 39 -70l40 -75q25 -45 48.5 -61t63.5 -20v-28zM471 756l-2 -8l-185 -64l-13 25l157 102
q9 -1 25 -22.5t18 -32.5z" />
    <glyph glyph-name="uni040E" unicode="&#x40e;" horiz-adv-x="653" 
d="M639 650v-29q-49 -6 -66 -22.5t-48 -82.5l-86 -196l-92 -208q-40 -82 -79 -111.5t-82 -29.5q-24 0 -43 10t-26 25q-14 27 9 48q22 20 41 4q24 -21 59 -21q33 0 59.5 42t26.5 64q0 20 -17 55q-31 69 -175 356q-18 37 -35.5 48.5t-66.5 18.5v29h236v-29l-30 -5
q-22 -4 -24 -15.5t12 -40.5l154 -315q90 208 120 294q13 44 6.5 58.5t-35.5 18.5l-35 5v29h217zM337 698q-57 0 -90 22t-33 58q0 16 10 28.5t26 12.5q18 0 26.5 -13t7.5 -29q-1 -20 13.5 -30.5t39.5 -10.5q52 0 52 41q-1 17 8.5 29.5t27.5 12.5q16 0 26 -12t10 -28
q0 -37 -34 -59t-90 -22z" />
    <glyph glyph-name="uni040F" unicode="&#x40f;" horiz-adv-x="741" 
d="M704 0h-229q-37 0 -50.5 -11.5t-19.5 -41.5q-11 -60 -19 -141h-32q-11 112 -17 141q-7 29 -22.5 41t-55.5 12h-223v29q62 4 76.5 19.5t14.5 80.5v393q0 65 -14 80.5t-75 19.5v28h260v-28q-59 -4 -72.5 -19t-13.5 -81v-413q0 -48 13.5 -61t60.5 -13h158q57 0 71.5 11.5
t14.5 62.5v413q0 66 -13.5 81t-75.5 19v28h263v-28q-62 -4 -75.5 -19.5t-13.5 -80.5v-393q0 -64 13.5 -80t75.5 -20v-29z" />
    <glyph glyph-name="uni0410" unicode="&#x410;" horiz-adv-x="691" 
d="M673 0h-245v28q47 6 58 16t1 39l-55 154h-213q-31 -88 -44 -129q-16 -47 -5.5 -61t67.5 -19v-28h-217v28q49 7 68 23t44 80l207 525l31 9l193 -536q24 -64 42 -80t68 -21v-28zM418 280l-88 255h-2l-94 -255h184z" />
    <glyph glyph-name="uni0411" unicode="&#x411;" horiz-adv-x="580" 
d="M251 0h-211v27q43 3 58.5 9.5t21.5 24.5t6 64v408q0 58 -12.5 71.5t-67.5 18.5v27h424q4 -74 11 -141l-30 -6q-15 65 -33 87q-21 25 -99 25h-73q-25 0 -30.5 -5t-5.5 -30v-203q11 0 30.5 1t35.5 1.5t31 0.5q117 0 175.5 -47t58.5 -130q0 -108 -91 -162q-71 -41 -199 -41z
M210 342v-207q0 -62 15.5 -80.5t67.5 -18.5q64 0 107.5 37.5t43.5 118.5q0 151 -173 151q-42 0 -61 -1z" />
    <glyph glyph-name="uni0412" unicode="&#x412;" horiz-adv-x="588" 
d="M372 353v-3q177 -27 177 -159q0 -97 -96 -151q-73 -40 -196 -40h-221v28q65 5 78.5 19t13.5 77v403q0 63 -12 77t-72 18v28h257q102 0 150 -34q56 -37 56 -114q0 -64 -40.5 -99t-94.5 -50zM212 362h47q81 0 118.5 32t37.5 96q0 56 -33 92t-100 36q-40 0 -57 -10
q-13 -9 -13 -50v-196zM212 329v-204q0 -54 17.5 -72.5t65.5 -18.5q67 1 111 37.5t44 109.5q0 148 -192 148h-46z" />
    <glyph glyph-name="uni0413" unicode="&#x413;" horiz-adv-x="512" 
d="M487 508l-30 -4q-15 58 -33 86q-18 26 -108 26h-64q-29 0 -35 -5.5t-6 -31.5v-454q0 -64 15 -78.5t82 -19.5v-27h-266v27q58 5 71 19.5t13 78.5v400q0 35 -2 51.5t-12 27t-22.5 13t-43.5 5.5v28h430q5 -88 11 -142z" />
    <glyph glyph-name="uni0414" unicode="&#x414;" horiz-adv-x="649" 
d="M613 36l-23 -204h-30l-12 89q-6 49 -20 64t-52 15h-315q-41 0 -56.5 -16t-28.5 -67l-23 -85h-30l5 204h42q23 0 32 20q44 83 66.5 219t22.5 282q0 33 -11 43t-46 16l-40 6v28h511v-28q-59 -5 -72 -20.5t-13 -82.5v-431q0 -35 6 -43.5t29 -8.5h58zM435 110v436
q0 49 -5.5 59t-33.5 10h-116q-29 0 -35.5 -5t-6.5 -27q0 -320 -72 -517q-6 -15 -2.5 -22.5t21.5 -7.5h188q39 0 50.5 13.5t11.5 60.5z" />
    <glyph glyph-name="uni0415" unicode="&#x415;" horiz-adv-x="568" 
d="M516 162l30 -4q-18 -100 -35 -158h-482v28q68 5 83.5 20t15.5 76v398q0 66 -13 80.5t-73 19.5v28h446q0 -8 8 -144l-29 -5q-11 50 -32 86q-11 16 -35 22t-78 6h-76q-23 0 -28 -4.5t-5 -27.5v-227h94q66 0 82 11.5t26 63.5h29v-192h-29q-10 54 -26 66t-81 12h-95v-189
q0 -64 24 -81q21 -13 104 -13q57 0 83 7t43 27q30 35 49 94z" />
    <glyph glyph-name="uni0416" unicode="&#x416;" horiz-adv-x="954" 
d="M937 0h-84q-44 0 -70 22t-50 70l-71 143q-29 60 -60 77.5t-83 16.5v-203q0 -62 13.5 -77.5t71.5 -20.5v-28h-254v28q58 5 71.5 20t13.5 78v203q-53 1 -86 -17t-62 -76l-68 -144q-23 -47 -49 -69.5t-70 -22.5h-83v28q39 3 63 19.5t49 62.5l29 54l30 54l20 36
q24 40 50.5 61t62.5 33v3q-59 34 -103 125q-34 72 -54 95.5t-52 23.5h-20q-16 0 -27 8.5t-11 21.5q0 17 14 28.5t38 11.5q72 0 118 -105q57 -129 90 -159q23 -23 48 -31t73 -9v171q0 58 -13 71.5t-72 18.5v28h254v-28q-58 -5 -71.5 -18.5t-13.5 -71.5v-171q49 1 74 9t49 31
q14 13 28 35.5t21 37.5l29 65l9 20q48 106 120 106q24 0 37.5 -12t13.5 -28q0 -13 -11.5 -21.5t-28.5 -8.5h-21q-31 0 -50.5 -24.5t-52.5 -92.5q-20 -43 -45 -74t-31 -35.5t-26 -17.5v-3q38 -12 63 -32t50 -62q10 -17 37 -67l41 -77q26 -46 49.5 -62.5t62.5 -19.5v-28z" />
    <glyph glyph-name="uni0417" unicode="&#x417;" horiz-adv-x="518" 
d="M311 359v-4q75 -11 122 -52.5t47 -118.5q0 -65 -38.5 -111.5t-93 -67t-115.5 -20.5q-99 0 -158 46q-49 36 -49 77q0 19 10.5 29.5t24.5 10.5q22 0 38 -36q39 -91 138 -93q24 0 47 7.5t45.5 24.5t36 50.5t13.5 77.5q0 67 -38 110.5t-84 43.5q-12 0 -37.5 -5t-42.5 -5
q-18 0 -30 8.5t-12 22.5q0 13 12.5 22.5t30.5 9.5q16 0 41.5 -5t37.5 -5q38 1 69 33.5t31 87.5q0 65 -33.5 99.5t-86.5 34.5q-60 0 -93.5 -40t-54.5 -104l-30 3q8 38 18 135q31 11 74 24q53 16 103 16q88 0 141 -43.5t53 -111.5t-53 -108q-38 -29 -84 -43z" />
    <glyph glyph-name="uni0418" unicode="&#x418;" horiz-adv-x="752" 
d="M711 0h-254v28q59 5 72.5 19.5t13.5 77.5v261q0 90 5 186h-4l-317 -523q-9 -13 -9 -38v-11h-176v28q58 5 71 20.5t13 83.5v399q0 59 -13 72.5t-71 18.5v28h252v-28q-57 -5 -71 -19t-14 -71v-244q0 -98 -4 -197h2l314 516q11 17 11 33v10h179v-28q-58 -5 -71.5 -21
t-13.5 -82v-394q0 -45 6.5 -63t21.5 -24.5t57 -9.5v-28z" />
    <glyph glyph-name="uni0419" unicode="&#x419;" horiz-adv-x="752" 
d="M711 0h-254v28q59 5 72.5 19.5t13.5 77.5v261q0 90 5 186h-4l-317 -523q-9 -13 -9 -38v-11h-176v28q58 5 71 20.5t13 83.5v399q0 59 -13 72.5t-71 18.5v28h252v-28q-57 -5 -71 -19t-14 -71v-244q0 -98 -4 -197h2l314 516q11 17 11 33v10h179v-28q-58 -5 -71.5 -21
t-13.5 -82v-394q0 -45 6.5 -63t21.5 -24.5t57 -9.5v-28zM385 698q-56 0 -89.5 22.5t-33.5 58.5q0 16 10 28t26 12q18 0 26.5 -13t7.5 -28q0 -41 53 -41q27 0 40 11t12 30q-1 17 8.5 29t27.5 12q16 0 26 -12t10 -28q0 -36 -34.5 -58.5t-89.5 -22.5z" />
    <glyph glyph-name="uni041A" unicode="&#x41a;" horiz-adv-x="650" 
d="M635 0h-84q-45 0 -71 21.5t-49 70.5l-72 143q-29 59 -60.5 76t-87.5 16v-202q0 -63 13.5 -77.5t71.5 -19.5v-28h-254v28q58 5 71 19.5t13 77.5v407q0 58 -13 71.5t-71 18.5v28h254v-28q-58 -5 -71.5 -18.5t-13.5 -71.5v-172q52 1 78 9.5t50 31.5q15 14 30 38.5t24.5 44.5
t33.5 75q48 106 118 106q25 0 39.5 -11.5t14.5 -28.5q0 -13 -12 -21t-29 -9h-22q-31 0 -52.5 -27.5t-60.5 -107.5q-17 -35 -39.5 -61t-31.5 -32.5t-25 -16.5v-3q75 -22 117 -93q11 -18 39 -70l40 -75q25 -45 48.5 -61t63.5 -20v-28z" />
    <glyph glyph-name="uni041B" unicode="&#x41b;" horiz-adv-x="645" 
d="M602 0h-252v28q41 3 56 9.5t21 24.5t6 64v441q0 33 -5 40t-33 7h-104q-30 0 -36.5 -5t-6.5 -24q0 -403 -112 -550q-37 -50 -72 -50q-30 0 -52 11v18q66 41 104 110q85 144 85 432q0 38 -18 50t-79 16v28h498v-28q-57 -5 -70.5 -19t-13.5 -69v-408q0 -64 13 -78.5
t71 -19.5v-28z" />
    <glyph glyph-name="uni041C" unicode="&#x41c;" horiz-adv-x="891" 
d="M861 0h-263v28q61 6 73 23t11 96l-3 408h-4l-244 -548h-20l-224 534h-2l-15 -285q-5 -97 -3 -166q1 -34 20 -45t72 -17v-28h-233v28q45 5 62.5 17t22.5 43q11 75 19 183l14 208q3 36 3.5 55t-2.5 37.5t-6.5 25t-16.5 13t-25.5 8t-39.5 4.5v28h164l228 -500l231 500h170
v-28q-16 -1 -24 -2t-19.5 -3t-16 -3.5t-11.5 -5t-9.5 -7t-6 -10.5t-4 -13.5t-1.5 -18t-0.5 -22.5t0.5 -28l10 -362q2 -80 15 -96.5t78 -22.5v-28z" />
    <glyph glyph-name="uni041D" unicode="&#x41d;" horiz-adv-x="766" 
d="M729 650v-28q-62 -5 -76 -19.5t-14 -75.5v-404q0 -62 13.5 -76t75.5 -19v-28h-268v28q65 5 79.5 19t14.5 76v200h-341v-200q0 -62 14 -76t76 -19v-28h-263v28q61 5 74.5 19t13.5 76v404q0 62 -13.5 76t-76.5 19v28h259v-28q-58 -5 -71 -19.5t-13 -75.5v-162h341v162
q0 61 -13.5 75.5t-72.5 19.5v28h261z" />
    <glyph glyph-name="uni041E" unicode="&#x41e;" horiz-adv-x="747" 
d="M380 665q132 0 227.5 -93t95.5 -239q0 -158 -96 -253t-238 -95q-137 0 -231 95t-94 238q0 142 92.5 244.5t243.5 102.5zM360 629q-89 0 -151.5 -74.5t-62.5 -208.5q0 -141 69 -233t175 -92q89 0 150 74t61 211q0 152 -69 237.5t-172 85.5z" />
    <glyph glyph-name="uni041F" unicode="&#x41f;" horiz-adv-x="735" 
d="M695 0h-261v28q61 5 74.5 19t13.5 79v423q0 44 -9.5 55t-50.5 11h-189q-42 0 -52 -11.5t-10 -59.5v-418q0 -64 14 -78.5t74 -19.5v-28h-260v28q43 3 59 9.5t22 24.5t6 64v398q0 65 -13 79t-73 19v28h654v-28q-60 -5 -73.5 -19.5t-13.5 -78.5v-398q0 -65 13.5 -79
t74.5 -19v-28z" />
    <glyph glyph-name="uni0420" unicode="&#x420;" horiz-adv-x="563" 
d="M46 650h247q112 0 168 -42q65 -48 65 -141q0 -90 -57 -142t-138 -63q-26 -2 -45 0l-74 19v-157q0 -63 15.5 -77t83.5 -19v-28h-271v28q60 5 74 20t14 77v400q0 65 -12.5 79t-69.5 18v28zM212 559v-245q31 -12 73 -12q59 0 102 38t43 124q0 77 -42.5 115.5t-108.5 38.5
q-44 0 -56 -12q-11 -10 -11 -47z" />
    <glyph glyph-name="uni0421" unicode="&#x421;" horiz-adv-x="665" 
d="M614 176l29 -11q-33 -110 -57 -153q-108 -27 -184 -27q-90 0 -160.5 29t-112.5 77t-63.5 105.5t-21.5 119.5q0 156 108 252.5t277 96.5q36 0 71.5 -5t69 -13.5t36.5 -8.5q15 -110 20 -151l-30 -7q-19 79 -65.5 114t-128.5 35q-119 0 -187.5 -86t-68.5 -207
q0 -140 73.5 -227.5t188.5 -87.5q73 0 119.5 37.5t86.5 117.5z" />
    <glyph glyph-name="uni0422" unicode="&#x422;" horiz-adv-x="617" 
d="M592 498l-29 -3q-15 67 -32 89q-12 19 -32.5 25t-75.5 6h-71v-492q0 -60 16 -75.5t87 -19.5v-28h-287v28q68 4 83.5 19.5t15.5 75.5v492h-62q-60 0 -83 -6.5t-33 -24.5q-13 -18 -32 -89h-29q10 116 12 180h20q10 -16 21 -20.5t34 -4.5h395q19 0 28.5 5t22.5 20h21
q0 -61 10 -177z" />
    <glyph glyph-name="uni0423" unicode="&#x423;" horiz-adv-x="653" 
d="M639 650v-29q-49 -6 -66 -22.5t-48 -82.5l-86 -196l-92 -208q-40 -82 -79 -111.5t-82 -29.5q-24 0 -43 10t-26 25q-14 27 9 48q22 20 41 4q24 -21 59 -21q33 0 59.5 42t26.5 64q0 20 -17 55q-31 69 -175 356q-18 37 -35.5 48.5t-66.5 18.5v29h236v-29l-30 -5
q-22 -4 -24 -15.5t12 -40.5l154 -315q90 208 120 294q13 44 6.5 58.5t-35.5 18.5l-35 5v29h217z" />
    <glyph glyph-name="uni0424" unicode="&#x424;" horiz-adv-x="767" 
d="M496 658v-28q-50 -3 -62 -12t-12 -46q55 -1 104.5 -13t96 -37t74.5 -73.5t28 -114.5q0 -64 -27.5 -112t-73.5 -73.5t-96 -38t-105 -13.5q0 -46 11.5 -56.5t61.5 -13.5v-27h-233v27q51 4 62.5 14.5t11.5 55.5q-54 1 -102 12.5t-93.5 36.5t-72.5 73.5t-27 114.5
q0 53 18.5 94.5t48 67.5t69.5 43.5t78.5 24.5t79.5 8q0 38 -12 47t-61 11v28h233zM338 159v331q0 32 -1 49q-88 -3 -145 -50.5t-57 -154.5q0 -55 17.5 -95.5t47.5 -63t63.5 -33t73.5 -12.5q1 5 1 29zM421 493v-336v-27q92 3 151.5 50.5t59.5 153.5q0 57 -18 98t-49 63.5
t-66.5 32.5t-77.5 11v-46z" />
    <glyph glyph-name="uni0425" unicode="&#x425;" horiz-adv-x="654" 
d="M655 0h-263v28q46 5 55.5 14.5t-5.5 34.5l-133 214q-70 -108 -121 -202q-19 -32 -10.5 -43.5t58.5 -17.5v-28h-229v28q44 5 70 17t47 40q58 75 163 239l-134 214q-32 49 -53 63.5t-74 20.5v28h245v-28q-43 -5 -51.5 -14t4.5 -28q34 -58 115 -182q67 104 98 162
q19 33 11 44.5t-58 17.5v28h229v-28q-56 -6 -80 -19.5t-58 -57.5l-122 -179l158 -246q34 -52 60 -69.5t78 -22.5v-28z" />
    <glyph glyph-name="uni0426" unicode="&#x426;" horiz-adv-x="741" 
d="M700 37l-23 -205h-31l-11 89q-6 49 -20.5 64t-51.5 15h-525v28q61 4 74.5 18.5t13.5 79.5v402q0 61 -13.5 75.5t-73.5 19.5v27h260v-27q-60 -5 -74 -19.5t-14 -75.5v-414q0 -52 12.5 -65t61.5 -13h164q50 0 62 11.5t12 61.5v416q0 63 -14 78t-75 20v27h259v-27
q-59 -5 -72 -19.5t-13 -78.5v-438q0 -34 6 -42t28 -8h58z" />
    <glyph glyph-name="uni0427" unicode="&#x427;" horiz-adv-x="666" 
d="M624 650v-28q-58 -5 -71 -18.5t-13 -72.5v-405q0 -64 13 -78.5t71 -19.5v-28h-258v28q61 5 75 20t14 78v189l-98 -35q-35 -13 -74 -13q-109 0 -156 62q-31 42 -31 117v89q0 56 -12 69t-65 18v28h244v-28q-56 -5 -69 -18.5t-13 -70.5v-76q0 -71 36 -104t117 -33
q63 0 121 31v179q0 59 -13.5 73t-69.5 19v28h252z" />
    <glyph glyph-name="uni0428" unicode="&#x428;" horiz-adv-x="958" 
d="M923 0h-881v28q57 5 70.5 20t13.5 80v398q0 62 -13.5 76.5t-69.5 19.5v28h241v-28q-51 -5 -62.5 -18.5t-11.5 -76.5v-410q0 -57 9.5 -69t51.5 -12h104q43 0 52 12t9 69v410q0 61 -11.5 75.5t-61.5 19.5v28h231v-28q-53 -4 -63 -18t-10 -77v-410q0 -57 9.5 -69t51.5 -12
h104q42 0 51.5 12t9.5 69v410q0 63 -12.5 76.5t-68.5 18.5v28h248v-28q-57 -5 -69.5 -18.5t-12.5 -76.5v-402q0 -63 14 -77.5t77 -19.5v-28z" />
    <glyph glyph-name="uni0429" unicode="&#x429;" horiz-adv-x="960" 
d="M924 36l-23 -204h-30l-12 89q-6 49 -20 64t-52 15h-746v28q58 5 71.5 19.5t13.5 78.5v399q0 34 -2 50.5t-12.5 27.5t-24 13.5t-45.5 5.5v28h242v-28q-50 -5 -62 -19.5t-12 -76.5v-408q0 -58 9.5 -70t51.5 -12h104q43 0 52 11.5t9 69.5v409q0 63 -11.5 77t-61.5 19v28h231
v-28q-51 -5 -62 -19t-11 -77v-409q0 -58 9 -69.5t52 -11.5h104q42 0 51.5 12t9.5 69v409q0 63 -12.5 77t-68.5 19v28h250v-28q-42 -3 -57 -9.5t-21 -24t-6 -62.5v-438q0 -35 6 -43.5t28 -8.5h58z" />
    <glyph glyph-name="uni042A" unicode="&#x42a;" horiz-adv-x="720" 
d="M395 0h-216v28q59 5 72.5 19t13.5 74v454q0 31 -5 35.5t-36 4.5h-49q-39 0 -58.5 -5.5t-30.5 -21.5q-19 -25 -35 -90l-28 3q2 24 4.5 59t4.5 59t3 31h409v-29q-66 -5 -81 -19.5t-15 -77.5v-143q43 6 103 6q115 0 172.5 -48t57.5 -133q0 -113 -93 -166q-70 -40 -193 -40z
M348 346v-214q0 -59 18 -77.5t69 -18.5q150 2 150 161q0 154 -169 154q-39 0 -68 -5z" />
    <glyph glyph-name="uni042B" unicode="&#x42b;" horiz-adv-x="840" 
d="M253 0h-211v28q58 5 71 19.5t13 78.5v399q0 63 -13 77.5t-69 19.5v28h255v-28q-44 -3 -60 -9.5t-22.5 -24t-6.5 -63.5v-141q43 6 100 6q115 0 172.5 -48.5t57.5 -131.5q0 -116 -91 -167q-72 -43 -196 -43zM799 0h-253v28q57 4 70.5 20t13.5 76v403q0 59 -13.5 75
t-70.5 20v28h254v-28q-58 -4 -71.5 -20t-13.5 -75v-403q0 -61 13.5 -76.5t70.5 -19.5v-28zM210 350v-228q0 -51 15.5 -68.5t70.5 -17.5q61 0 103.5 40t42.5 122q0 156 -166 156q-24 0 -66 -4z" />
    <glyph glyph-name="uni042C" unicode="&#x42c;" horiz-adv-x="581" 
d="M254 0h-212v28q58 5 71 19.5t13 77.5v400q0 64 -13 78t-71 19v28h256v-28q-43 -3 -59 -9.5t-22.5 -24.5t-6.5 -63v-141q54 6 103 6q115 0 173.5 -48t58.5 -132q0 -114 -92 -168q-73 -42 -199 -42zM210 349v-228q0 -50 16.5 -67t72.5 -17q63 0 105.5 40t42.5 121
q0 155 -168 155q-27 0 -69 -4z" />
    <glyph glyph-name="uni042D" unicode="&#x42d;" horiz-adv-x="644" 
d="M81 465l-29 5q16 113 21 146l43 14l57 18l51 11l60 6q69 0 125 -20.5t91 -53.5t59 -76t33.5 -85t9.5 -85q0 -86 -24 -153t-59.5 -105t-83 -62t-87 -32t-77.5 -8q-127 0 -198 69q-44 40 -44 80q0 16 9 27t22 11q22 0 39 -35q54 -116 178 -116q96 0 160.5 81t65.5 217
l-348 -8v56l347 -9q-6 139 -68 205t-159 66q-47 0 -81.5 -13.5t-56 -41t-32.5 -50t-24 -59.5z" />
    </font>
</defs>
</svg>
